<?xml version="1.0" standalone="no"?>
<!DOCTYPE svg PUBLIC "-//W3C//DTD SVG 1.1//EN" "http://www.w3.org/Graphics/SVG/1.1/DTD/svg11.dtd" >
<svg xmlns="http://www.w3.org/2000/svg">
<metadata>Generated by IcoMoon</metadata>
<defs>
<font id="atticons" horiz-adv-x="1024">
<font-face units-per-em="1024" ascent="960" descent="-64" />
<missing-glyph horiz-adv-x="1024" />
<glyph unicode="&#x20;" d="" horiz-adv-x="512" />
<glyph unicode="&#xe600;" d="M467.383 529.938c-10.24 0-20.846-0.366-34.011-1.463v-74.258h38.053c24.503 0 46.098 2.56 46.098 38.784-0.037 27.794-14.665 36.937-50.139 36.937zM722.651 530.67c-49.737 0-65.115-29.623-65.115-82.67 0-52.681 15.378-82.688 65.115-82.688 49.755 0 65.134 30.007 65.134 82.688-0.018 52.315-15.397 82.67-65.134 82.67zM859.429 886.857h-694.857c-54.674 0-91.429-36.754-91.429-91.429v-694.857c0-56.393 35.035-91.429 91.429-91.429h694.857c54.674 0 91.429 36.754 91.429 91.429v694.857c0 56.393-35.035 91.429-91.429 91.429zM343.79 525.184h-109.733v-53.76h99.127v-45.001h-99.127v-100.59h-53.394v243.986h163.145v-44.635zM482.743 412.526h-49.39v-86.693h-53.394v242.158c20.846 2.194 55.607 4.754 87.058 4.754 53.778 0 102.802-16.457 102.802-78.281-0.018-48.658-24.521-81.938-87.077-81.938zM722.651 322.158c-72.046 0-120.722 39.15-120.722 125.842 0 85.961 48.311 125.824 120.722 125.824 72.795 0 120.722-39.515 120.722-125.824-0.018-86.693-48.658-125.842-120.722-125.842z" />
<glyph unicode="&#xe601;" d="M467.383 529.938c-10.24 0-20.846-0.366-34.011-1.463v-74.258h38.053c24.503 0 46.098 2.56 46.098 38.784-0.037 27.794-14.665 36.937-50.139 36.937zM722.651 530.67c-49.737 0-65.115-29.623-65.115-82.67 0-52.681 15.378-82.688 65.115-82.688 49.755 0 65.134 30.007 65.134 82.688-0.018 52.315-15.397 82.67-65.134 82.67zM859.429 886.857h-694.857c-54.674 0-91.429-36.754-91.429-91.429v-694.857c0-56.393 35.035-91.429 91.429-91.429h694.857c54.674 0 91.429 36.754 91.429 91.429v694.857c0 56.393-35.035 91.429-91.429 91.429zM343.79 525.184h-109.733v-53.76h99.127v-45.001h-99.127v-100.59h-53.394v243.986h163.145v-44.635zM482.743 412.526h-49.39v-86.693h-53.394v242.158c20.846 2.194 55.607 4.754 87.058 4.754 53.778 0 102.802-16.457 102.802-78.281-0.018-48.658-24.521-81.938-87.077-81.938zM722.651 322.158c-72.046 0-120.722 39.15-120.722 125.842 0 85.961 48.311 125.824 120.722 125.824 72.795 0 120.722-39.515 120.722-125.824-0.018-86.693-48.658-125.842-120.722-125.842z" />
<glyph unicode="&#xe602;" d="M467.383 529.938c-10.24 0-20.846-0.366-34.011-1.463v-74.258h38.053c24.503 0 46.098 2.56 46.098 38.784-0.037 27.794-14.665 36.937-50.139 36.937zM722.651 530.67c-49.737 0-65.115-29.623-65.115-82.67 0-52.681 15.378-82.688 65.115-82.688 49.755 0 65.134 30.007 65.134 82.688-0.018 52.315-15.397 82.67-65.134 82.67zM859.429 886.857h-694.857c-54.674 0-91.429-36.754-91.429-91.429v-694.857c0-56.393 35.035-91.429 91.429-91.429h694.857c54.674 0 91.429 36.754 91.429 91.429v694.857c0 56.393-35.035 91.429-91.429 91.429zM343.79 525.184h-109.733v-53.76h99.127v-45.001h-99.127v-100.59h-53.394v243.986h163.145v-44.635zM482.743 412.526h-49.39v-86.693h-53.394v242.158c20.846 2.194 55.607 4.754 87.058 4.754 53.778 0 102.802-16.457 102.802-78.281-0.018-48.658-24.521-81.938-87.077-81.938zM722.651 322.158c-72.046 0-120.722 39.15-120.722 125.842 0 85.961 48.311 125.824 120.722 125.824 72.795 0 120.722-39.515 120.722-125.824-0.018-86.693-48.658-125.842-120.722-125.842z" />
<glyph unicode="&#xe603;" d="M490.295 810.551c-13.129 5.851-28.599 3.438-39.333-6.217l-233.399-210.048h-180.992c-20.206 0-36.571-16.384-36.571-36.571v-219.429c0-20.187 16.366-36.571 36.571-36.571h180.992l233.399-210.030c6.857-6.181 15.616-9.399 24.466-9.399 5.029 0 10.112 1.042 14.866 3.163 13.202 5.87 21.705 18.962 21.705 33.408v658.286c0 14.446-8.503 27.538-21.705 33.408zM905.838 775.131c-12.928 15.543-36.005 17.646-51.511 4.736-15.525-12.91-17.646-35.968-4.736-51.493 65.298-78.537 101.266-178.103 101.266-280.375s-35.968-201.819-101.266-280.357c-12.91-15.543-10.789-38.583 4.754-51.493 6.821-5.687 15.104-8.466 23.351-8.466 10.478 0 20.919 4.498 28.142 13.202 76.197 91.611 118.162 207.799 118.162 327.113s-41.966 235.502-118.162 327.131zM671.872 683.099c-15.707-12.69-18.158-35.73-5.467-51.419 42.533-52.626 65.024-116.133 65.024-183.68 0-67.529-22.491-131.072-65.024-183.68-12.69-15.707-10.258-38.729 5.467-51.419 6.766-5.467 14.885-8.137 22.967-8.137 10.661 0 21.23 4.645 28.471 13.586 52.407 64.823 81.262 146.395 81.262 229.65s-28.855 164.827-81.262 229.669c-12.727 15.689-35.73 18.139-51.438 5.431z" />
<glyph unicode="&#xe604;" d="M490.295 810.551c-13.129 5.851-28.599 3.438-39.333-6.217l-233.399-210.048h-180.992c-20.206 0-36.571-16.384-36.571-36.571v-219.429c0-20.187 16.366-36.571 36.571-36.571h180.992l233.399-210.030c6.857-6.181 15.616-9.399 24.466-9.399 5.029 0 10.112 1.042 14.866 3.163 13.202 5.87 21.705 18.962 21.705 33.408v658.286c0 14.446-8.503 27.538-21.705 33.408zM856.283 448l83.858 83.858c14.281 14.281 14.281 37.431 0 51.712-14.281 14.281-37.431 14.281-51.712 0l-83.858-83.858-83.858 83.858c-14.281 14.281-37.431 14.281-51.712 0s-14.281-37.431 0-51.712l83.858-83.858-83.858-83.858c-14.281-14.281-14.281-37.431 0-51.712 7.15-7.15 16.494-10.715 25.856-10.715s18.706 3.566 25.856 10.715l83.858 83.858 83.858-83.858c7.15-7.15 16.494-10.715 25.856-10.715s18.706 3.566 25.856 10.715c14.281 14.281 14.281 37.431 0 51.712l-83.858 83.858z" />
<glyph unicode="&#xe605;" d="M490.295 810.551c-13.129 5.851-28.599 3.419-39.333-6.217l-233.399-210.048h-180.992c-20.206 0-36.571-16.384-36.571-36.571v-219.429c0-20.187 16.366-36.571 36.571-36.571h180.992l233.399-210.030c6.857-6.181 15.616-9.399 24.466-9.399 5.029 0 10.112 1.042 14.866 3.163 13.202 5.87 21.705 18.962 21.705 33.408v658.286c0 14.446-8.503 27.538-21.705 33.408zM724.389 575.141c-11.922 16.293-34.816 19.877-51.109 7.954-16.329-11.922-19.877-34.798-7.973-51.109 37.632-51.474 37.65-120.649 0.018-172.105-11.922-16.311-8.375-39.205 7.936-51.109 6.528-4.773 14.080-7.058 21.559-7.058 11.282 0 22.4 5.175 29.55 14.976 56.503 77.275 56.503 181.138 0.018 258.45z" />
<glyph unicode="&#xe606;" d="M621.714 594.286h-36.571v36.571c0 60.507-49.207 109.714-109.714 109.714h-292.571c-20.187 0-36.571-16.384-36.571-36.571s16.384-36.571 36.571-36.571h292.571c20.169 0 36.571-16.402 36.571-36.571v-36.571h-380.087c-85.687 0-131.913-61.239-131.913-118.857v-283.429c0-60.507 49.207-109.714 109.714-109.714h521.143c55.461 0 100.571 45.111 100.571 100.571v292.571c0 63.305-51.273 118.857-109.714 118.857zM329.143 192h-219.429c-20.187 0-36.571 16.384-36.571 36.571s16.384 36.571 36.571 36.571h219.429c20.187 0 36.571-16.384 36.571-36.571s-16.384-36.571-36.571-36.571zM1008.256 523.776c-9.874 6.839-22.455 8.411-33.664 4.187l-146.286-54.857c-14.281-5.358-23.735-19.017-23.735-34.249v-182.857c0-15.232 9.454-28.891 23.735-34.249l146.286-54.857c4.151-1.554 8.503-2.322 12.837-2.322 7.333 0 14.629 2.213 20.827 6.51 9.856 6.839 15.744 18.066 15.744 30.062v292.571c0 11.995-5.888 23.223-15.744 30.062z" />
<glyph unicode="&#xe607;" d="M621.714 594.286h-36.571v36.571c0 60.507-49.207 109.714-109.714 109.714h-292.571c-20.206 0-36.571-16.384-36.571-36.571s16.366-36.571 36.571-36.571h292.571c20.151 0 36.571-16.384 36.571-36.571v-36.571h-380.087c-85.687 0-131.913-61.257-131.913-118.857v-283.429c0-60.507 49.207-109.714 109.714-109.714h521.143c55.442 0 100.571 45.111 100.571 100.571v292.571c0 63.323-51.273 118.857-109.714 118.857zM498.615 304.713l-35.584-18.871c-34.779-18.414-91.739-48.658-126.482-67.145l-35.566-18.871c-34.779-18.542-63.269-2.981-63.269 34.395v208.146c0 37.504 28.489 53.029 63.25 34.505l35.566-18.834c34.743-18.56 91.703-48.768 126.482-67.291l35.584-18.853c34.743-18.432 34.743-48.658 0.018-67.182zM1008.274 523.776c-9.874 6.839-22.473 8.411-33.682 4.187l-146.286-54.857c-14.281-5.358-23.735-18.999-23.735-34.249v-182.857c0-15.25 9.454-28.891 23.735-34.249l146.286-54.857c4.151-1.554 8.503-2.322 12.837-2.322 7.333 0 14.629 2.213 20.846 6.491 9.856 6.857 15.726 18.085 15.726 30.080v292.571c0 11.995-5.87 23.223-15.726 30.062z" />
<glyph unicode="&#xe608;" d="M467.383 529.938c-10.24 0-20.846-0.366-34.011-1.463v-74.258h38.053c24.503 0 46.098 2.56 46.098 38.784-0.037 27.794-14.665 36.937-50.139 36.937zM722.651 530.67c-49.737 0-65.115-29.623-65.115-82.67 0-52.681 15.378-82.688 65.115-82.688 49.755 0 65.134 30.007 65.134 82.688-0.018 52.315-15.397 82.67-65.134 82.67zM859.429 886.857h-694.857c-54.674 0-91.429-36.754-91.429-91.429v-694.857c0-56.393 35.035-91.429 91.429-91.429h694.857c54.674 0 91.429 36.754 91.429 91.429v694.857c0 56.393-35.035 91.429-91.429 91.429zM343.79 525.184h-109.733v-53.76h99.127v-45.001h-99.127v-100.59h-53.394v243.986h163.145v-44.635zM482.743 412.526h-49.39v-86.693h-53.394v242.158c20.846 2.194 55.607 4.754 87.058 4.754 53.778 0 102.802-16.457 102.802-78.281-0.018-48.658-24.521-81.938-87.077-81.938zM722.651 322.158c-72.046 0-120.722 39.15-120.722 125.842 0 85.961 48.311 125.824 120.722 125.824 72.795 0 120.722-39.515 120.722-125.824-0.018-86.693-48.658-125.842-120.722-125.842z" />
<glyph unicode="&#xe609;" d="M467.383 529.938c-10.24 0-20.846-0.366-34.011-1.463v-74.258h38.053c24.503 0 46.098 2.56 46.098 38.784-0.037 27.794-14.665 36.937-50.139 36.937zM722.651 530.67c-49.737 0-65.115-29.623-65.115-82.67 0-52.681 15.378-82.688 65.115-82.688 49.755 0 65.134 30.007 65.134 82.688-0.018 52.315-15.397 82.67-65.134 82.67zM859.429 886.857h-694.857c-54.674 0-91.429-36.754-91.429-91.429v-694.857c0-56.393 35.035-91.429 91.429-91.429h694.857c54.674 0 91.429 36.754 91.429 91.429v694.857c0 56.393-35.035 91.429-91.429 91.429zM343.79 525.184h-109.733v-53.76h99.127v-45.001h-99.127v-100.59h-53.394v243.986h163.145v-44.635zM482.743 412.526h-49.39v-86.693h-53.394v242.158c20.846 2.194 55.607 4.754 87.058 4.754 53.778 0 102.802-16.457 102.802-78.281-0.018-48.658-24.521-81.938-87.077-81.938zM722.651 322.158c-72.046 0-120.722 39.15-120.722 125.842 0 85.961 48.311 125.824 120.722 125.824 72.795 0 120.722-39.515 120.722-125.824-0.018-86.693-48.658-125.842-120.722-125.842z" />
<glyph unicode="&#xe60a;" d="M874.935 120.064h0.219l-72.046 265.71c-0.073 0.183-0.11 0.384-0.183 0.567l-0.11 0.457h-0.073c-11.886 40.997-84.005 75.154-182.455 89.893 66.322 37.76 111.141 108.928 111.141 190.738 0 121.216-98.249 219.429-219.429 219.429-121.198 0-219.429-98.213-219.429-219.429 0-81.81 44.818-152.978 111.141-190.72-98.469-14.738-170.569-48.896-182.473-89.893h-0.073l-0.146-0.53c-0.037-0.146-0.091-0.293-0.128-0.457l-72.064-265.856h0.201c-1.646-6.4-2.743-12.837-2.743-19.401 0-36.571 73.143-164.535 365.714-164.535s365.714 127.963 365.714 164.535c0 6.601-1.115 13.074-2.779 19.493z" />
<glyph unicode="&#xe60b;" d="M615.954 425.783c-0.037 0.073-0.037 0.146-0.073 0.219l-0.037 0.165h-0.037c-4.224 14.629-30.007 26.825-65.134 32.091 23.68 13.477 39.68 38.894 39.68 68.114 0 43.301-35.072 78.373-78.354 78.373s-78.373-35.072-78.373-78.373c0-29.221 16.018-54.638 39.698-68.114-35.163-5.266-60.928-17.463-65.152-32.091h-0.055l-0.055-0.201c0-0.055-0.037-0.11-0.037-0.165 0 0-24.027-103.442-24.027-105.801 0-13.074 23.497-54.839 128-54.839 104.485 0 128 41.765 128 54.839 0 2.359-24.046 105.783-24.046 105.783z" />
<glyph unicode="&#xe60c;" d="M467.383 529.938c-10.24 0-20.846-0.366-34.011-1.463v-74.258h38.053c24.503 0 46.098 2.56 46.098 38.784-0.037 27.794-14.665 36.937-50.139 36.937zM722.651 530.67c-49.737 0-65.115-29.623-65.115-82.67 0-52.681 15.378-82.688 65.115-82.688 49.755 0 65.134 30.007 65.134 82.688-0.018 52.315-15.397 82.67-65.134 82.67zM859.429 886.857h-694.857c-54.674 0-91.429-36.754-91.429-91.429v-694.857c0-56.393 35.035-91.429 91.429-91.429h694.857c54.674 0 91.429 36.754 91.429 91.429v694.857c0 56.393-35.035 91.429-91.429 91.429zM343.79 525.184h-109.733v-53.76h99.127v-45.001h-99.127v-100.59h-53.394v243.986h163.145v-44.635zM482.743 412.526h-49.39v-86.693h-53.394v242.158c20.846 2.194 55.607 4.754 87.058 4.754 53.778 0 102.802-16.457 102.802-78.281-0.018-48.658-24.521-81.938-87.077-81.938zM722.651 322.158c-72.046 0-120.722 39.15-120.722 125.842 0 85.961 48.311 125.824 120.722 125.824 72.795 0 120.722-39.515 120.722-125.824-0.018-86.693-48.658-125.842-120.722-125.842z" />
<glyph unicode="&#xe60d;" d="M467.383 529.938c-10.24 0-20.846-0.366-34.011-1.463v-74.258h38.053c24.503 0 46.098 2.56 46.098 38.784-0.037 27.794-14.665 36.937-50.139 36.937zM722.651 530.67c-49.737 0-65.115-29.623-65.115-82.67 0-52.681 15.378-82.688 65.115-82.688 49.755 0 65.134 30.007 65.134 82.688-0.018 52.315-15.397 82.67-65.134 82.67zM859.429 886.857h-694.857c-54.674 0-91.429-36.754-91.429-91.429v-694.857c0-56.393 35.035-91.429 91.429-91.429h694.857c54.674 0 91.429 36.754 91.429 91.429v694.857c0 56.393-35.035 91.429-91.429 91.429zM343.79 525.184h-109.733v-53.76h99.127v-45.001h-99.127v-100.59h-53.394v243.986h163.145v-44.635zM482.743 412.526h-49.39v-86.693h-53.394v242.158c20.846 2.194 55.607 4.754 87.058 4.754 53.778 0 102.802-16.457 102.802-78.281-0.018-48.658-24.521-81.938-87.077-81.938zM722.651 322.158c-72.046 0-120.722 39.15-120.722 125.842 0 85.961 48.311 125.824 120.722 125.824 72.795 0 120.722-39.515 120.722-125.824-0.018-86.693-48.658-125.842-120.722-125.842z" />
<glyph unicode="&#xe60e;" d="M768 960c-141.385 0-256-114.651-256-256.037 0-141.422 114.615-256 256-256 141.312 0 256 114.578 256 256 0 141.385-114.688 256.037-256 256.037zM936.393 682.313c-7.259-8.119-17.28-12.27-27.355-12.27-8.649 0-17.317 3.035-24.283 9.234l-80.183 71.296v-169.362c0-20.187-16.402-36.571-36.571-36.571-20.224 0-36.571 16.384-36.571 36.571v169.362l-80.219-71.296c-15.067-13.385-38.217-12.050-51.602 3.035-13.422 15.104-12.069 38.217 3.035 51.639l141.038 125.385c0.677 0.585 1.426 1.024 2.139 1.554 0.823 0.64 1.646 1.298 2.542 1.865 1.115 0.75 2.286 1.317 3.493 1.902 0.859 0.421 1.682 0.896 2.578 1.243 1.426 0.549 2.853 0.951 4.315 1.335 0.75 0.201 1.463 0.457 2.249 0.603 4.608 0.896 9.362 0.896 13.97 0 0.786-0.146 1.499-0.402 2.249-0.603 1.463-0.384 2.926-0.786 4.315-1.335 0.896-0.366 1.719-0.823 2.578-1.225 1.207-0.603 2.395-1.17 3.529-1.92 0.896-0.549 1.682-1.207 2.542-1.865 0.677-0.53 1.426-0.969 2.103-1.554l141.074-125.385c15.067-13.44 16.421-36.535 3.035-51.639zM768 374.857c-20.224 0-36.571-16.384-36.571-36.571v-109.714h-438.857v630.857c0 15.122 12.288 27.429 27.429 27.429h155.429c20.169 0 36.571 16.384 36.571 36.571s-16.402 36.571-36.571 36.571h-155.429c-55.461 0-100.571-45.129-100.571-100.571v-749.714c0-55.442 45.111-100.571 100.571-100.571h374.857c60.507 0 109.714 49.207 109.714 109.714v219.429c0 20.187-16.402 36.571-36.571 36.571zM402.286 82.286c-20.224 0-36.571 16.384-36.571 36.571s16.347 36.571 36.571 36.571c20.169 0 36.571-16.384 36.571-36.571s-16.402-36.571-36.571-36.571zM621.714 82.286h-73.143c-20.224 0-36.571 16.384-36.571 36.571s16.347 36.571 36.571 36.571h73.143c20.169 0 36.571-16.384 36.571-36.571s-16.402-36.571-36.571-36.571z" />
<glyph unicode="&#xe60f;" d="M467.383 529.938c-10.24 0-20.846-0.366-34.011-1.463v-74.258h38.053c24.503 0 46.098 2.56 46.098 38.784-0.037 27.794-14.665 36.937-50.139 36.937zM722.651 530.67c-49.737 0-65.115-29.623-65.115-82.67 0-52.681 15.378-82.688 65.115-82.688 49.755 0 65.134 30.007 65.134 82.688-0.018 52.315-15.397 82.67-65.134 82.67zM859.429 886.857h-694.857c-54.674 0-91.429-36.754-91.429-91.429v-694.857c0-56.393 35.035-91.429 91.429-91.429h694.857c54.674 0 91.429 36.754 91.429 91.429v694.857c0 56.393-35.035 91.429-91.429 91.429zM343.79 525.184h-109.733v-53.76h99.127v-45.001h-99.127v-100.59h-53.394v243.986h163.145v-44.635zM482.743 412.526h-49.39v-86.693h-53.394v242.158c20.846 2.194 55.607 4.754 87.058 4.754 53.778 0 102.802-16.457 102.802-78.281-0.018-48.658-24.521-81.938-87.077-81.938zM722.651 322.158c-72.046 0-120.722 39.15-120.722 125.842 0 85.961 48.311 125.824 120.722 125.824 72.795 0 120.722-39.515 120.722-125.824-0.018-86.693-48.658-125.842-120.722-125.842z" />
<glyph unicode="&#xe610;" d="M467.383 529.938c-10.24 0-20.846-0.366-34.011-1.463v-74.258h38.053c24.503 0 46.098 2.56 46.098 38.784-0.037 27.794-14.665 36.937-50.139 36.937zM722.651 530.67c-49.737 0-65.115-29.623-65.115-82.67 0-52.681 15.378-82.688 65.115-82.688 49.755 0 65.134 30.007 65.134 82.688-0.018 52.315-15.397 82.67-65.134 82.67zM859.429 886.857h-694.857c-54.674 0-91.429-36.754-91.429-91.429v-694.857c0-56.393 35.035-91.429 91.429-91.429h694.857c54.674 0 91.429 36.754 91.429 91.429v694.857c0 56.393-35.035 91.429-91.429 91.429zM343.79 525.184h-109.733v-53.76h99.127v-45.001h-99.127v-100.59h-53.394v243.986h163.145v-44.635zM482.743 412.526h-49.39v-86.693h-53.394v242.158c20.846 2.194 55.607 4.754 87.058 4.754 53.778 0 102.802-16.457 102.802-78.281-0.018-48.658-24.521-81.938-87.077-81.938zM722.651 322.158c-72.046 0-120.722 39.15-120.722 125.842 0 85.961 48.311 125.824 120.722 125.824 72.795 0 120.722-39.515 120.722-125.824-0.018-86.693-48.658-125.842-120.722-125.842z" />
<glyph unicode="&#xe611;" d="M467.383 529.938c-10.24 0-20.846-0.366-34.011-1.463v-74.258h38.053c24.503 0 46.098 2.56 46.098 38.784-0.037 27.794-14.665 36.937-50.139 36.937zM722.651 530.67c-49.737 0-65.115-29.623-65.115-82.67 0-52.681 15.378-82.688 65.115-82.688 49.755 0 65.134 30.007 65.134 82.688-0.018 52.315-15.397 82.67-65.134 82.67zM859.429 886.857h-694.857c-54.674 0-91.429-36.754-91.429-91.429v-694.857c0-56.393 35.035-91.429 91.429-91.429h694.857c54.674 0 91.429 36.754 91.429 91.429v694.857c0 56.393-35.035 91.429-91.429 91.429zM343.79 525.184h-109.733v-53.76h99.127v-45.001h-99.127v-100.59h-53.394v243.986h163.145v-44.635zM482.743 412.526h-49.39v-86.693h-53.394v242.158c20.846 2.194 55.607 4.754 87.058 4.754 53.778 0 102.802-16.457 102.802-78.281-0.018-48.658-24.521-81.938-87.077-81.938zM722.651 322.158c-72.046 0-120.722 39.15-120.722 125.842 0 85.961 48.311 125.824 120.722 125.824 72.795 0 120.722-39.515 120.722-125.824-0.018-86.693-48.658-125.842-120.722-125.842z" />
<glyph unicode="&#xe612;" d="M467.383 529.938c-10.24 0-20.846-0.366-34.011-1.463v-74.258h38.053c24.503 0 46.098 2.56 46.098 38.784-0.037 27.794-14.665 36.937-50.139 36.937zM722.651 530.67c-49.737 0-65.115-29.623-65.115-82.67 0-52.681 15.378-82.688 65.115-82.688 49.755 0 65.134 30.007 65.134 82.688-0.018 52.315-15.397 82.67-65.134 82.67zM859.429 886.857h-694.857c-54.674 0-91.429-36.754-91.429-91.429v-694.857c0-56.393 35.035-91.429 91.429-91.429h694.857c54.674 0 91.429 36.754 91.429 91.429v694.857c0 56.393-35.035 91.429-91.429 91.429zM343.79 525.184h-109.733v-53.76h99.127v-45.001h-99.127v-100.59h-53.394v243.986h163.145v-44.635zM482.743 412.526h-49.39v-86.693h-53.394v242.158c20.846 2.194 55.607 4.754 87.058 4.754 53.778 0 102.802-16.457 102.802-78.281-0.018-48.658-24.521-81.938-87.077-81.938zM722.651 322.158c-72.046 0-120.722 39.15-120.722 125.842 0 85.961 48.311 125.824 120.722 125.824 72.795 0 120.722-39.515 120.722-125.824-0.018-86.693-48.658-125.842-120.722-125.842z" />
<glyph unicode="&#xe613;" d="M467.383 529.938c-10.24 0-20.846-0.366-34.011-1.463v-74.258h38.053c24.503 0 46.098 2.56 46.098 38.784-0.037 27.794-14.665 36.937-50.139 36.937zM722.651 530.67c-49.737 0-65.115-29.623-65.115-82.67 0-52.681 15.378-82.688 65.115-82.688 49.755 0 65.134 30.007 65.134 82.688-0.018 52.315-15.397 82.67-65.134 82.67zM859.429 886.857h-694.857c-54.674 0-91.429-36.754-91.429-91.429v-694.857c0-56.393 35.035-91.429 91.429-91.429h694.857c54.674 0 91.429 36.754 91.429 91.429v694.857c0 56.393-35.035 91.429-91.429 91.429zM343.79 525.184h-109.733v-53.76h99.127v-45.001h-99.127v-100.59h-53.394v243.986h163.145v-44.635zM482.743 412.526h-49.39v-86.693h-53.394v242.158c20.846 2.194 55.607 4.754 87.058 4.754 53.778 0 102.802-16.457 102.802-78.281-0.018-48.658-24.521-81.938-87.077-81.938zM722.651 322.158c-72.046 0-120.722 39.15-120.722 125.842 0 85.961 48.311 125.824 120.722 125.824 72.795 0 120.722-39.515 120.722-125.824-0.018-86.693-48.658-125.842-120.722-125.842z" />
<glyph unicode="&#xe614;" d="M467.383 529.938c-10.24 0-20.846-0.366-34.011-1.463v-74.258h38.053c24.503 0 46.098 2.56 46.098 38.784-0.037 27.794-14.665 36.937-50.139 36.937zM722.651 530.67c-49.737 0-65.115-29.623-65.115-82.67 0-52.681 15.378-82.688 65.115-82.688 49.755 0 65.134 30.007 65.134 82.688-0.018 52.315-15.397 82.67-65.134 82.67zM859.429 886.857h-694.857c-54.674 0-91.429-36.754-91.429-91.429v-694.857c0-56.393 35.035-91.429 91.429-91.429h694.857c54.674 0 91.429 36.754 91.429 91.429v694.857c0 56.393-35.035 91.429-91.429 91.429zM343.79 525.184h-109.733v-53.76h99.127v-45.001h-99.127v-100.59h-53.394v243.986h163.145v-44.635zM482.743 412.526h-49.39v-86.693h-53.394v242.158c20.846 2.194 55.607 4.754 87.058 4.754 53.778 0 102.802-16.457 102.802-78.281-0.018-48.658-24.521-81.938-87.077-81.938zM722.651 322.158c-72.046 0-120.722 39.15-120.722 125.842 0 85.961 48.311 125.824 120.722 125.824 72.795 0 120.722-39.515 120.722-125.824-0.018-86.693-48.658-125.842-120.722-125.842z" />
<glyph unicode="&#xe615;" d="M467.383 529.938c-10.24 0-20.846-0.366-34.011-1.463v-74.258h38.053c24.503 0 46.098 2.56 46.098 38.784-0.037 27.794-14.665 36.937-50.139 36.937zM722.651 530.67c-49.737 0-65.115-29.623-65.115-82.67 0-52.681 15.378-82.688 65.115-82.688 49.755 0 65.134 30.007 65.134 82.688-0.018 52.315-15.397 82.67-65.134 82.67zM859.429 886.857h-694.857c-54.674 0-91.429-36.754-91.429-91.429v-694.857c0-56.393 35.035-91.429 91.429-91.429h694.857c54.674 0 91.429 36.754 91.429 91.429v694.857c0 56.393-35.035 91.429-91.429 91.429zM343.79 525.184h-109.733v-53.76h99.127v-45.001h-99.127v-100.59h-53.394v243.986h163.145v-44.635zM482.743 412.526h-49.39v-86.693h-53.394v242.158c20.846 2.194 55.607 4.754 87.058 4.754 53.778 0 102.802-16.457 102.802-78.281-0.018-48.658-24.521-81.938-87.077-81.938zM722.651 322.158c-72.046 0-120.722 39.15-120.722 125.842 0 85.961 48.311 125.824 120.722 125.824 72.795 0 120.722-39.515 120.722-125.824-0.018-86.693-48.658-125.842-120.722-125.842z" />
<glyph unicode="&#xe616;" d="M467.383 529.938c-10.24 0-20.846-0.366-34.011-1.463v-74.258h38.053c24.503 0 46.098 2.56 46.098 38.784-0.037 27.794-14.665 36.937-50.139 36.937zM722.651 530.67c-49.737 0-65.115-29.623-65.115-82.67 0-52.681 15.378-82.688 65.115-82.688 49.755 0 65.134 30.007 65.134 82.688-0.018 52.315-15.397 82.67-65.134 82.67zM859.429 886.857h-694.857c-54.674 0-91.429-36.754-91.429-91.429v-694.857c0-56.393 35.035-91.429 91.429-91.429h694.857c54.674 0 91.429 36.754 91.429 91.429v694.857c0 56.393-35.035 91.429-91.429 91.429zM343.79 525.184h-109.733v-53.76h99.127v-45.001h-99.127v-100.59h-53.394v243.986h163.145v-44.635zM482.743 412.526h-49.39v-86.693h-53.394v242.158c20.846 2.194 55.607 4.754 87.058 4.754 53.778 0 102.802-16.457 102.802-78.281-0.018-48.658-24.521-81.938-87.077-81.938zM722.651 322.158c-72.046 0-120.722 39.15-120.722 125.842 0 85.961 48.311 125.824 120.722 125.824 72.795 0 120.722-39.515 120.722-125.824-0.018-86.693-48.658-125.842-120.722-125.842z" />
<glyph unicode="&#xe617;" d="M768 594.286h-512c-20.206 0-36.571-16.384-36.571-36.571v-438.857c0-60.507 49.207-109.714 109.714-109.714h374.857c55.461 0 100.571 45.111 100.571 100.571v448c0 20.187-16.384 36.571-36.571 36.571zM438.857 155.429c0-20.187-16.384-36.571-36.571-36.571-20.206 0-36.571 16.384-36.571 36.571v329.143c0 20.187 16.366 36.571 36.571 36.571 20.187 0 36.571-16.384 36.571-36.571v-329.143zM658.286 155.429c0-20.187-16.384-36.571-36.571-36.571-20.206 0-36.571 16.384-36.571 36.571v329.143c0 20.187 16.366 36.571 36.571 36.571 20.187 0 36.571-16.384 36.571-36.571v-329.143zM841.143 813.714h-182.857v36.571c0 20.187-16.384 36.571-36.571 36.571h-219.429c-20.206 0-36.571-16.384-36.571-36.571v-36.571h-182.857c-20.206 0-36.571-16.384-36.571-36.571v-73.143c0-20.187 16.366-36.571 36.571-36.571h658.286c20.187 0 36.571 16.384 36.571 36.571v73.143c0 20.187-16.384 36.571-36.571 36.571z" />
<glyph unicode="&#xe618;" d="M467.383 529.938c-10.24 0-20.846-0.366-34.011-1.463v-74.258h38.053c24.503 0 46.098 2.56 46.098 38.784-0.037 27.794-14.665 36.937-50.139 36.937zM722.651 530.67c-49.737 0-65.115-29.623-65.115-82.67 0-52.681 15.378-82.688 65.115-82.688 49.755 0 65.134 30.007 65.134 82.688-0.018 52.315-15.397 82.67-65.134 82.67zM859.429 886.857h-694.857c-54.674 0-91.429-36.754-91.429-91.429v-694.857c0-56.393 35.035-91.429 91.429-91.429h694.857c54.674 0 91.429 36.754 91.429 91.429v694.857c0 56.393-35.035 91.429-91.429 91.429zM343.79 525.184h-109.733v-53.76h99.127v-45.001h-99.127v-100.59h-53.394v243.986h163.145v-44.635zM482.743 412.526h-49.39v-86.693h-53.394v242.158c20.846 2.194 55.607 4.754 87.058 4.754 53.778 0 102.802-16.457 102.802-78.281-0.018-48.658-24.521-81.938-87.077-81.938zM722.651 322.158c-72.046 0-120.722 39.15-120.722 125.842 0 85.961 48.311 125.824 120.722 125.824 72.795 0 120.722-39.515 120.722-125.824-0.018-86.693-48.658-125.842-120.722-125.842z" />
<glyph unicode="&#xe619;" d="M841.143 374.857h-219.429c-20.206 0-36.571-16.384-36.571-36.571v-219.429c0-20.187 16.366-36.571 36.571-36.571h219.429c20.187 0 36.571 16.384 36.571 36.571v219.429c0 20.187-16.384 36.571-36.571 36.571zM402.286 374.857h-219.429c-20.206 0-36.571-16.384-36.571-36.571v-219.429c0-20.187 16.366-36.571 36.571-36.571h219.429c20.187 0 36.571 16.384 36.571 36.571v219.429c0 20.187-16.384 36.571-36.571 36.571zM841.143 813.714h-219.429c-20.206 0-36.571-16.384-36.571-36.571v-219.429c0-20.187 16.366-36.571 36.571-36.571h219.429c20.187 0 36.571 16.384 36.571 36.571v219.429c0 20.187-16.384 36.571-36.571 36.571zM402.286 813.714h-219.429c-20.206 0-36.571-16.384-36.571-36.571v-219.429c0-20.187 16.366-36.571 36.571-36.571h219.429c20.187 0 36.571 16.384 36.571 36.571v219.429c0 20.187-16.384 36.571-36.571 36.571z" />
<glyph unicode="&#xe61a;" d="M256 813.714h-73.143c-20.206 0-36.571-16.384-36.571-36.571v-73.143c0-20.187 16.366-36.571 36.571-36.571h73.143c20.187 0 36.571 16.384 36.571 36.571v73.143c0 20.187-16.384 36.571-36.571 36.571zM548.571 813.714h-73.143c-20.206 0-36.571-16.384-36.571-36.571v-73.143c0-20.187 16.366-36.571 36.571-36.571h73.143c20.187 0 36.571 16.384 36.571 36.571v73.143c0 20.187-16.384 36.571-36.571 36.571zM841.143 813.714h-73.143c-20.206 0-36.571-16.384-36.571-36.571v-73.143c0-20.187 16.366-36.571 36.571-36.571h73.143c20.187 0 36.571 16.384 36.571 36.571v73.143c0 20.187-16.384 36.571-36.571 36.571zM256 521.143h-73.143c-20.206 0-36.571-16.384-36.571-36.571v-73.143c0-20.187 16.366-36.571 36.571-36.571h73.143c20.187 0 36.571 16.384 36.571 36.571v73.143c0 20.187-16.384 36.571-36.571 36.571zM548.571 521.143h-73.143c-20.206 0-36.571-16.384-36.571-36.571v-73.143c0-20.187 16.366-36.571 36.571-36.571h73.143c20.187 0 36.571 16.384 36.571 36.571v73.143c0 20.187-16.384 36.571-36.571 36.571zM841.143 521.143h-73.143c-20.206 0-36.571-16.384-36.571-36.571v-73.143c0-20.187 16.366-36.571 36.571-36.571h73.143c20.187 0 36.571 16.384 36.571 36.571v73.143c0 20.187-16.384 36.571-36.571 36.571zM256 228.571h-73.143c-20.206 0-36.571-16.384-36.571-36.571v-73.143c0-20.187 16.366-36.571 36.571-36.571h73.143c20.187 0 36.571 16.384 36.571 36.571v73.143c0 20.187-16.384 36.571-36.571 36.571zM548.571 228.571h-73.143c-20.206 0-36.571-16.384-36.571-36.571v-73.143c0-20.187 16.366-36.571 36.571-36.571h73.143c20.187 0 36.571 16.384 36.571 36.571v73.143c0 20.187-16.384 36.571-36.571 36.571zM841.143 228.571h-73.143c-20.206 0-36.571-16.384-36.571-36.571v-73.143c0-20.187 16.366-36.571 36.571-36.571h73.143c20.187 0 36.571 16.384 36.571 36.571v73.143c0 20.187-16.384 36.571-36.571 36.571z" />
<glyph unicode="&#xe61b;" d="M292.571 867.584l-125.038-127.013h125.038zM841.143 740.571h-109.714v109.714c0 20.187-16.384 36.571-36.571 36.571h-329.143v-182.857c0-20.187-16.384-36.571-36.571-36.571h-182.857v-548.571c0-20.187 16.384-36.571 36.571-36.571h109.714v-109.714c0-20.187 16.384-36.571 36.571-36.571h512c20.187 0 36.571 16.384 36.571 36.571v731.429c0 20.187-16.384 36.571-36.571 36.571zM256 521.143h365.714c20.187 0 36.571-16.384 36.571-36.571s-16.384-36.571-36.571-36.571h-365.714c-20.187 0-36.571 16.384-36.571 36.571s16.384 36.571 36.571 36.571zM256 301.714c-20.187 0-36.571 16.384-36.571 36.571s16.384 36.571 36.571 36.571h365.714c20.187 0 36.571-16.384 36.571-36.571s-16.384-36.571-36.571-36.571h-365.714zM804.571 9.143h-438.857v73.143h329.143c20.187 0 36.571 16.384 36.571 36.571v548.571h73.143v-658.286z" />
<glyph unicode="&#xe61c;" d="M841.143 228.571c-20.206 0-36.571-16.384-36.571-36.571v-182.857h-292.571v256c0 20.187-16.384 36.571-36.571 36.571h-256v512h256c20.187 0 36.571 16.384 36.571 36.571s-16.384 36.571-36.571 36.571h-292.571c-20.206 0-36.571-16.384-36.571-36.571v-585.143c0-2.469 0.256-4.901 0.731-7.241 0.311-1.536 0.859-2.962 1.335-4.425 0.293-0.786 0.421-1.627 0.75-2.395 0.658-1.573 1.536-3.017 2.395-4.462 0.347-0.603 0.585-1.243 0.987-1.829 1.189-1.774 2.56-3.401 4.041-4.937 0.183-0.183 0.311-0.402 0.475-0.585l292.571-292.571c0.293-0.311 0.64-0.494 0.951-0.768 1.426-1.353 2.907-2.651 4.553-3.73 0.713-0.475 1.536-0.823 2.304-1.262 1.298-0.75 2.597-1.536 3.986-2.103 0.859-0.366 1.792-0.53 2.688-0.841 1.371-0.439 2.706-0.987 4.151-1.262 2.341-0.475 4.773-0.731 7.223-0.731h365.714c20.187 0 36.571 16.366 36.571 36.571v219.429c0 20.187-16.384 36.571-36.571 36.571zM950.857 667.429h-225.225l47.451 67.767c23.168 33.079 15.104 78.702-17.975 101.851-33.115 23.186-78.738 15.122-101.87-17.957l-128-182.857c-0.128-0.201-0.201-0.384-0.329-0.567-0.622-0.914-1.115-1.902-1.682-2.834-1.719-2.761-3.291-5.577-4.608-8.485-0.622-1.371-1.134-2.779-1.682-4.187-1.061-2.816-1.938-5.669-2.633-8.576-0.347-1.371-0.695-2.725-0.969-4.151-1.591-8.704-1.591-17.591 0-26.295 0.274-1.408 0.622-2.743 0.969-4.151 0.695-2.889 1.591-5.742 2.633-8.558 0.53-1.426 1.061-2.816 1.682-4.187 1.317-2.907 2.889-5.723 4.608-8.485 0.567-0.951 1.061-1.938 1.682-2.834 0.128-0.201 0.201-0.402 0.329-0.567l128-182.857c14.245-20.334 36.919-31.214 59.995-31.214 14.464 0 29.111 4.297 41.874 13.239 33.097 23.168 41.143 68.773 17.975 101.87l-47.451 67.749h225.225c40.393 0 73.143 32.731 73.143 73.143 0 40.393-32.75 73.143-73.143 73.143z" />
<glyph unicode="&#xe61d;" d="M841.143 228.571c-20.206 0-36.571-16.384-36.571-36.571v-182.857h-292.571v256c0 20.187-16.384 36.571-36.571 36.571h-256v512h329.143c20.187 0 36.571 16.384 36.571 36.571s-16.384 36.571-36.571 36.571h-365.714c-20.206 0-36.571-16.384-36.571-36.571v-585.143c0-2.469 0.256-4.901 0.731-7.241 0.311-1.536 0.859-2.962 1.335-4.425 0.293-0.786 0.421-1.627 0.75-2.395 0.658-1.573 1.536-3.017 2.395-4.462 0.347-0.603 0.585-1.243 0.987-1.829 1.189-1.774 2.56-3.401 4.041-4.937 0.183-0.183 0.311-0.402 0.475-0.585l292.571-292.571c0.293-0.311 0.64-0.494 0.951-0.768 1.426-1.353 2.907-2.651 4.553-3.73 0.713-0.475 1.536-0.823 2.304-1.262 1.298-0.75 2.597-1.536 3.986-2.103 0.859-0.366 1.792-0.53 2.688-0.841 1.371-0.439 2.706-0.987 4.151-1.262 2.341-0.475 4.773-0.731 7.223-0.731h365.714c20.187 0 36.571 16.366 36.571 36.571v219.429c0 20.187-16.384 36.571-36.571 36.571zM1012.791 555.758c1.719 2.743 3.291 5.577 4.608 8.485 0.622 1.353 1.134 2.779 1.682 4.187 1.079 2.816 1.938 5.669 2.651 8.576 0.347 1.371 0.695 2.706 0.969 4.133 1.591 8.704 1.591 17.609 0 26.313-0.274 1.39-0.622 2.743-0.969 4.133-0.695 2.889-1.573 5.76-2.651 8.576-0.53 1.408-1.061 2.816-1.682 4.187-1.317 2.907-2.889 5.705-4.608 8.485-0.567 0.933-1.042 1.92-1.682 2.834-0.128 0.183-0.201 0.384-0.329 0.567l-128 182.857c-23.186 33.097-68.773 41.143-101.87 17.957-33.097-23.168-41.143-68.773-17.975-101.851l47.433-67.767h-225.225c-40.393 0-73.143-32.75-73.143-73.143 0-40.411 32.75-73.143 73.143-73.143h225.225l-47.451-67.767c-23.168-33.097-15.104-78.72 17.975-101.87 12.763-8.923 27.41-13.239 41.874-13.239 23.077 0 45.769 10.88 59.995 31.214l128 182.857c0.128 0.183 0.201 0.384 0.329 0.567 0.658 0.914 1.115 1.92 1.701 2.853z" />
<glyph unicode="&#xe61e;" d="M467.383 529.938c-10.24 0-20.846-0.366-34.011-1.463v-74.258h38.053c24.503 0 46.098 2.56 46.098 38.784-0.037 27.794-14.665 36.937-50.139 36.937zM722.651 530.67c-49.737 0-65.115-29.623-65.115-82.67 0-52.681 15.378-82.688 65.115-82.688 49.755 0 65.134 30.007 65.134 82.688-0.018 52.315-15.397 82.67-65.134 82.67zM859.429 886.857h-694.857c-54.674 0-91.429-36.754-91.429-91.429v-694.857c0-56.393 35.035-91.429 91.429-91.429h694.857c54.674 0 91.429 36.754 91.429 91.429v694.857c0 56.393-35.035 91.429-91.429 91.429zM343.79 525.184h-109.733v-53.76h99.127v-45.001h-99.127v-100.59h-53.394v243.986h163.145v-44.635zM482.743 412.526h-49.39v-86.693h-53.394v242.158c20.846 2.194 55.607 4.754 87.058 4.754 53.778 0 102.802-16.457 102.802-78.281-0.018-48.658-24.521-81.938-87.077-81.938zM722.651 322.158c-72.046 0-120.722 39.15-120.722 125.842 0 85.961 48.311 125.824 120.722 125.824 72.795 0 120.722-39.515 120.722-125.824-0.018-86.693-48.658-125.842-120.722-125.842z" />
<glyph unicode="&#xe61f;" d="M841.143 886.857h-658.286c-20.224 0-36.571-16.384-36.571-36.571v-585.143c0-2.469 0.256-4.901 0.713-7.241 0.311-1.536 0.859-2.962 1.353-4.425 0.293-0.786 0.421-1.627 0.75-2.395 0.64-1.573 1.536-3.017 2.395-4.462 0.311-0.603 0.567-1.243 0.969-1.829 1.207-1.774 2.578-3.401 4.041-4.937 0.183-0.183 0.329-0.402 0.494-0.585l292.571-292.571c0.293-0.311 0.64-0.494 0.933-0.768 1.426-1.353 2.926-2.651 4.571-3.73 0.713-0.475 1.536-0.823 2.286-1.262 1.317-0.75 2.615-1.536 4.005-2.103 0.859-0.366 1.792-0.53 2.688-0.841 1.353-0.439 2.706-0.987 4.133-1.262 2.341-0.475 4.773-0.731 7.241-0.731h365.714c20.169 0 36.571 16.366 36.571 36.571v877.714c0 20.187-16.402 36.571-36.571 36.571zM804.571 9.143h-292.571v256c0 20.187-16.402 36.571-36.571 36.571h-256v512h585.143v-804.571z" />
<glyph unicode="&#xe620;" d="M841.143 228.571c-20.206 0-36.571-16.384-36.571-36.571v-182.857h-292.571v256c0 20.187-16.384 36.571-36.571 36.571h-256v512h329.143c20.187 0 36.571 16.384 36.571 36.571s-16.384 36.571-36.571 36.571h-365.714c-20.206 0-36.571-16.384-36.571-36.571v-585.143c0-2.469 0.256-4.901 0.731-7.241 0.311-1.536 0.859-2.962 1.353-4.425 0.274-0.786 0.402-1.627 0.731-2.395 0.658-1.573 1.536-3.017 2.395-4.462 0.347-0.603 0.585-1.243 0.987-1.829 1.189-1.774 2.578-3.401 4.041-4.937 0.183-0.183 0.311-0.402 0.475-0.585l292.571-292.571c0.311-0.311 0.64-0.494 0.951-0.768 1.426-1.353 2.907-2.651 4.553-3.73 0.731-0.475 1.554-0.823 2.304-1.262 1.298-0.75 2.597-1.536 3.986-2.103 0.878-0.366 1.81-0.53 2.688-0.841 1.353-0.439 2.688-0.987 4.151-1.262 2.341-0.475 4.773-0.731 7.223-0.731h365.714c20.187 0 36.571 16.366 36.571 36.571v219.429c0 20.187-16.384 36.571-36.571 36.571zM1018.405 503.808l-220.27 367.141c-6.601 9.6-17.609 15.909-30.135 15.909s-23.552-6.309-30.135-15.909l-219.099-365.294c-4.151-7.68-6.766-13.202-6.766-21.083 0-20.187 16.366-36.571 36.571-36.571h438.857c20.187 0 36.571 16.384 36.571 36.571 0 7.095-2.103 13.641-5.595 19.237z" />
<glyph unicode="&#xe621;" d="M841.143 228.571c-20.187 0-36.571-16.384-36.571-36.571v-182.857h-292.571v256c0 20.187-16.366 36.571-36.571 36.571h-256v512h329.143c20.206 0 36.571 16.384 36.571 36.571s-16.366 36.571-36.571 36.571h-365.714c-20.187 0-36.571-16.384-36.571-36.571v-585.143c0-2.469 0.256-4.901 0.75-7.241 0.293-1.536 0.859-2.962 1.317-4.425 0.293-0.786 0.421-1.627 0.75-2.395 0.677-1.573 1.536-3.017 2.395-4.462 0.347-0.603 0.603-1.243 1.006-1.829 1.17-1.774 2.542-3.401 4.041-4.937 0.183-0.183 0.293-0.402 0.457-0.585l292.571-292.571c0.293-0.311 0.64-0.494 0.969-0.768 1.426-1.353 2.889-2.651 4.535-3.73 0.713-0.475 1.536-0.823 2.322-1.262 1.28-0.75 2.578-1.536 3.968-2.103 0.859-0.366 1.792-0.53 2.688-0.841 1.39-0.439 2.706-0.987 4.169-1.262 2.341-0.475 4.773-0.731 7.205-0.731h365.714c20.206 0 36.571 16.366 36.571 36.571v219.429c0 20.187-16.366 36.571-36.571 36.571zM877.714 448c0-40.396-32.747-73.143-73.143-73.143-40.396 0-73.143 32.747-73.143 73.143 0 40.396 32.747 73.143 73.143 73.143 40.396 0 73.143-32.747 73.143-73.143zM768.567 624.567h0.073c2.999-17.17 17.902-30.281 35.931-30.281s32.969 13.111 35.931 30.281h0.11l35.035 245.65c1.243 5.358 2.066 10.898 2.066 16.64 0 40.393-32.75 73.143-73.143 73.143s-73.143-32.75-73.143-73.143c0-5.083 0.53-10.057 1.536-14.848l35.602-247.442z" />
<glyph unicode="&#xe622;" d="M841.143 228.571c-20.206 0-36.571-16.384-36.571-36.571v-182.857h-292.571v256c0 20.187-16.384 36.571-36.571 36.571h-256v512h256c20.187 0 36.571 16.384 36.571 36.571s-16.384 36.571-36.571 36.571h-292.571c-20.206 0-36.571-16.384-36.571-36.571v-585.143c0-2.469 0.256-4.901 0.731-7.241 0.311-1.536 0.859-2.962 1.335-4.425 0.274-0.786 0.421-1.627 0.75-2.395 0.658-1.573 1.518-3.017 2.377-4.462 0.366-0.603 0.603-1.243 1.006-1.829 1.17-1.774 2.56-3.401 4.041-4.937 0.183-0.183 0.311-0.402 0.475-0.585l292.571-292.571c0.293-0.311 0.64-0.494 0.951-0.768 1.426-1.353 2.907-2.651 4.535-3.73 0.731-0.475 1.554-0.823 2.322-1.262 1.298-0.75 2.578-1.536 3.986-2.103 0.859-0.366 1.792-0.53 2.688-0.841 1.371-0.439 2.706-0.987 4.151-1.262 2.341-0.475 4.773-0.731 7.223-0.731h365.714c20.187 0 36.571 16.366 36.571 36.571v219.429c0 20.187-16.384 36.571-36.571 36.571zM908.014 594.286l94.555 94.555c28.562 28.562 28.562 74.88 0 103.442s-74.88 28.562-103.442 0l-94.555-94.555-94.574 94.555c-28.562 28.562-74.88 28.562-103.442 0-28.562-28.581-28.562-74.88 0-103.442l94.574-94.555-94.574-94.574c-28.562-28.562-28.562-74.88 0-103.442 14.281-14.263 33.006-21.413 51.73-21.413 18.706 0 37.431 7.15 51.712 21.413l94.574 94.574 94.555-94.574c14.281-14.263 33.006-21.413 51.73-21.413 18.706 0 37.431 7.15 51.712 21.413 28.562 28.562 28.562 74.88 0 103.442l-94.555 94.574z" />
<glyph unicode="&#xe623;" d="M841.143 228.571c-20.224 0-36.571-16.384-36.571-36.571v-182.857h-292.571v256c0 20.187-16.402 36.571-36.571 36.571h-256v512h329.143c20.169 0 36.571 16.384 36.571 36.571s-16.402 36.571-36.571 36.571h-365.714c-20.224 0-36.571-16.384-36.571-36.571v-585.143c0-2.469 0.256-4.901 0.713-7.241 0.311-1.536 0.859-2.962 1.353-4.425 0.293-0.786 0.421-1.627 0.75-2.395 0.64-1.573 1.536-3.017 2.395-4.462 0.311-0.603 0.567-1.243 0.969-1.829 1.207-1.774 2.578-3.401 4.041-4.937 0.183-0.183 0.329-0.402 0.494-0.585l292.571-292.571c0.293-0.311 0.64-0.494 0.933-0.768 1.426-1.353 2.926-2.651 4.571-3.73 0.713-0.475 1.536-0.823 2.286-1.262 1.317-0.75 2.615-1.536 4.005-2.103 0.859-0.366 1.792-0.53 2.688-0.841 1.353-0.439 2.706-0.987 4.133-1.262 2.341-0.475 4.773-0.731 7.241-0.731h365.714c20.169 0 36.571 16.366 36.571 36.571v219.429c0 20.187-16.402 36.571-36.571 36.571zM1002.971 891.392c-14.793 17.829-33.426 22.802-52.754 10.697l-1.682-1.042c-61.184-35.877-127.634-103.351-130.432-106.185-72.064-73.655-138.258-156.965-187.995-236.434l-20.078 29.605c-22.437 32.987-37.211 54.784-46.391 67.383-16.11 21.742-32.603 44.197-59.136 44.197-12.251 0-25.253-4.681-41.033-14.574-46.501-29.385-15.031-82.889-3.035-103.259 12.507-20.242 23.954-39.095 35.566-58.331 20.864-34.286 42.313-69.687 71.534-115.767 14.464-22.674 31.927-32.823 56.613-32.823 28.782 0 43.758 18.249 55.534 38.053 11.648 19.182 22.601 39.589 34.249 61.166 33.792 62.647 75.776 140.581 159.89 238.555 0.677 0.859 72.649 85.321 121.6 120.795 1.755 0.969 3.035 2.542 8.997 7.753 22.912 21.394 7.040 39.954-1.445 50.213z" />
<glyph unicode="&#xe624;" d="M1018.149 358.144c-6.766 10.405-18.322 16.713-30.72 16.713h-713.143c-14.391 0-27.465-8.448-33.353-21.577l-151.973-337.664c-9.527 6.619-15.817 17.609-15.817 30.098v512h256c20.169 0 36.571 16.384 36.571 36.571s-16.402 36.571-36.571 36.571h-292.571c-20.224 0-36.571-16.384-36.571-36.571v-548.571c0-60.507 49.207-109.714 109.714-109.714h713.143c14.391 0 27.429 8.43 33.317 21.559l164.571 365.714c5.12 11.319 4.114 24.448-2.597 34.871zM506.606 589.221l182.857-128c0.183-0.128 0.384-0.219 0.567-0.347 0.933-0.622 1.902-1.097 2.816-1.664 2.779-1.737 5.614-3.31 8.539-4.626 1.353-0.603 2.743-1.134 4.187-1.664 2.779-1.079 5.65-1.938 8.539-2.67 1.39-0.347 2.743-0.695 4.187-0.951 4.315-0.786 8.704-1.298 13.129-1.298 4.389 0 8.777 0.512 13.147 1.317 1.39 0.256 2.743 0.603 4.151 0.951 2.889 0.713 5.742 1.591 8.576 2.67 1.39 0.53 2.816 1.061 4.187 1.664 2.926 1.317 5.705 2.889 8.503 4.626 0.933 0.567 1.92 1.042 2.816 1.664 0.183 0.128 0.384 0.219 0.567 0.347l182.857 128c33.097 23.168 41.143 68.773 17.957 101.87-23.15 33.097-68.754 41.143-101.851 17.975l-67.767-47.451v225.225c0 40.393-32.75 73.143-73.143 73.143s-73.143-32.75-73.143-73.143v-225.225l-67.785 47.433c-33.115 23.168-78.72 15.122-101.851-17.975-23.186-33.115-15.122-78.72 17.957-101.87z" />
<glyph unicode="&#xe625;" d="M841.143 228.571c-20.224 0-36.571-16.384-36.571-36.571v-182.857h-292.571v256c0 20.187-16.402 36.571-36.571 36.571h-256.037l0.037 512h310.857c20.169 0 36.571 16.384 36.571 36.571s-16.402 36.571-36.571 36.571h-347.429c-20.224 0-36.571-16.384-36.571-36.571l-0.037-585.143c0-2.505 0.293-4.937 0.786-7.314 0.11-0.53 0.329-1.024 0.457-1.536 0.421-1.81 0.933-3.584 1.646-5.285 0.329-0.859 0.859-1.573 1.243-2.395 0.677-1.317 1.28-2.67 2.103-3.895 0.402-0.585 0.933-1.079 1.353-1.646 1.006-1.298 1.957-2.651 3.109-3.803l292.608-292.571c0.293-0.311 0.64-0.494 0.933-0.768 1.426-1.353 2.926-2.651 4.571-3.73 0.713-0.475 1.536-0.823 2.286-1.262 1.317-0.75 2.615-1.536 4.005-2.103 0.859-0.366 1.792-0.53 2.688-0.841 1.353-0.439 2.706-0.987 4.133-1.262 2.359-0.475 4.791-0.731 7.259-0.731h365.714c20.169 0 36.571 16.366 36.571 36.571v219.429c0 20.187-16.402 36.571-36.571 36.571zM1000.814 891.483l-45.458 46.72c-25.033 25.051-62.921 27.776-84.645 6.053l-0.677-0.622-316.215-316.27-58.496-153.911c-3.858-10.587-0.786-23.863 8.759-33.39 9.527-9.527 22.784-12.581 33.353-8.704v0l153.179 59.191 10.039 10.021 306.231 306.267c21.687 21.687 18.981 59.593-6.071 84.645z" />
<glyph unicode="&#xe626;" d="M467.383 529.938c-10.24 0-20.846-0.366-34.011-1.463v-74.258h38.053c24.503 0 46.098 2.56 46.098 38.784-0.037 27.794-14.665 36.937-50.139 36.937zM722.651 530.67c-49.737 0-65.115-29.623-65.115-82.67 0-52.681 15.378-82.688 65.115-82.688 49.755 0 65.134 30.007 65.134 82.688-0.018 52.315-15.397 82.67-65.134 82.67zM859.429 886.857h-694.857c-54.674 0-91.429-36.754-91.429-91.429v-694.857c0-56.393 35.035-91.429 91.429-91.429h694.857c54.674 0 91.429 36.754 91.429 91.429v694.857c0 56.393-35.035 91.429-91.429 91.429zM343.79 525.184h-109.733v-53.76h99.127v-45.001h-99.127v-100.59h-53.394v243.986h163.145v-44.635zM482.743 412.526h-49.39v-86.693h-53.394v242.158c20.846 2.194 55.607 4.754 87.058 4.754 53.778 0 102.802-16.457 102.802-78.281-0.018-48.658-24.521-81.938-87.077-81.938zM722.651 322.158c-72.046 0-120.722 39.15-120.722 125.842 0 85.961 48.311 125.824 120.722 125.824 72.795 0 120.722-39.515 120.722-125.824-0.018-86.693-48.658-125.842-120.722-125.842z" />
<glyph unicode="&#xe627;" d="M877.714 521.143c0 168.722-95.781 365.714-365.714 365.714s-365.714-196.992-365.714-365.714c-40.393 0-73.143-32.75-73.143-73.143v-219.429c0-40.393 32.75-73.143 73.143-73.143s73.143 32.75 73.143 73.143v292.571c0 68.645 21.102 292.571 292.571 292.571s292.571-223.927 292.571-292.571v-219.429c0-100.937-75.246-208.274-201.874-243.749-13.403 14.811-32.567 24.32-54.107 24.32h-73.161c-40.393 0-73.143-32.75-73.143-73.143s32.75-73.143 73.143-73.143h73.161c32.421 0 59.611 21.211 69.175 50.469 105.728 28.142 183.57 97.006 225.225 178.085 10.386-5.632 22.089-9.125 34.725-9.125 40.393 0 73.143 32.75 73.143 73.143v219.429c0 40.393-32.75 73.143-73.143 73.143z" />
<glyph unicode="&#xe628;" d="M467.383 529.938c-10.24 0-20.846-0.366-34.011-1.463v-74.258h38.053c24.503 0 46.098 2.56 46.098 38.784-0.037 27.794-14.665 36.937-50.139 36.937zM722.651 530.67c-49.737 0-65.115-29.623-65.115-82.67 0-52.681 15.378-82.688 65.115-82.688 49.755 0 65.134 30.007 65.134 82.688-0.018 52.315-15.397 82.67-65.134 82.67zM859.429 886.857h-694.857c-54.674 0-91.429-36.754-91.429-91.429v-694.857c0-56.393 35.035-91.429 91.429-91.429h694.857c54.674 0 91.429 36.754 91.429 91.429v694.857c0 56.393-35.035 91.429-91.429 91.429zM343.79 525.184h-109.733v-53.76h99.127v-45.001h-99.127v-100.59h-53.394v243.986h163.145v-44.635zM482.743 412.526h-49.39v-86.693h-53.394v242.158c20.846 2.194 55.607 4.754 87.058 4.754 53.778 0 102.802-16.457 102.802-78.281-0.018-48.658-24.521-81.938-87.077-81.938zM722.651 322.158c-72.046 0-120.722 39.15-120.722 125.842 0 85.961 48.311 125.824 120.722 125.824 72.795 0 120.722-39.515 120.722-125.824-0.018-86.693-48.658-125.842-120.722-125.842z" />
<glyph unicode="&#xe629;" d="M914.286 813.714h-804.571c-60.507 0-109.714-49.207-109.714-109.714v-521.143c0-55.461 45.147-100.571 100.571-100.571h813.714c60.507 0 109.714 49.207 109.714 109.714v512c0 60.507-49.207 109.714-109.714 109.714zM109.714 155.429c-20.187 0-36.571 16.384-36.571 36.571s16.384 36.571 36.571 36.571c20.206 0 36.571-16.384 36.571-36.571s-16.366-36.571-36.571-36.571zM146.286 338.286c0-20.187-16.366-36.571-36.571-36.571-20.187 0-36.571 16.384-36.571 36.571v109.714c0 20.187 16.384 36.571 36.571 36.571 20.206 0 36.571-16.384 36.571-36.571v-109.714zM950.857 192c0-20.187-16.402-36.571-36.571-36.571h-694.857v585.143h694.857c20.169 0 36.571-16.421 36.571-36.571v-512z" />
<glyph unicode="&#xe62a;" d="M467.383 529.938c-10.24 0-20.846-0.366-34.011-1.463v-74.258h38.053c24.503 0 46.098 2.56 46.098 38.784-0.037 27.794-14.665 36.937-50.139 36.937zM722.651 530.67c-49.737 0-65.115-29.623-65.115-82.67 0-52.681 15.378-82.688 65.115-82.688 49.755 0 65.134 30.007 65.134 82.688-0.018 52.315-15.397 82.67-65.134 82.67zM859.429 886.857h-694.857c-54.674 0-91.429-36.754-91.429-91.429v-694.857c0-56.393 35.035-91.429 91.429-91.429h694.857c54.674 0 91.429 36.754 91.429 91.429v694.857c0 56.393-35.035 91.429-91.429 91.429zM343.79 525.184h-109.733v-53.76h99.127v-45.001h-99.127v-100.59h-53.394v243.986h163.145v-44.635zM482.743 412.526h-49.39v-86.693h-53.394v242.158c20.846 2.194 55.607 4.754 87.058 4.754 53.778 0 102.802-16.457 102.802-78.281-0.018-48.658-24.521-81.938-87.077-81.938zM722.651 322.158c-72.046 0-120.722 39.15-120.722 125.842 0 85.961 48.311 125.824 120.722 125.824 72.795 0 120.722-39.515 120.722-125.824-0.018-86.693-48.658-125.842-120.722-125.842z" />
<glyph unicode="&#xe62b;" d="M467.383 529.938c-10.24 0-20.846-0.366-34.011-1.463v-74.258h38.053c24.503 0 46.098 2.56 46.098 38.784-0.037 27.794-14.665 36.937-50.139 36.937zM722.651 530.67c-49.737 0-65.115-29.623-65.115-82.67 0-52.681 15.378-82.688 65.115-82.688 49.755 0 65.134 30.007 65.134 82.688-0.018 52.315-15.397 82.67-65.134 82.67zM859.429 886.857h-694.857c-54.674 0-91.429-36.754-91.429-91.429v-694.857c0-56.393 35.035-91.429 91.429-91.429h694.857c54.674 0 91.429 36.754 91.429 91.429v694.857c0 56.393-35.035 91.429-91.429 91.429zM343.79 525.184h-109.733v-53.76h99.127v-45.001h-99.127v-100.59h-53.394v243.986h163.145v-44.635zM482.743 412.526h-49.39v-86.693h-53.394v242.158c20.846 2.194 55.607 4.754 87.058 4.754 53.778 0 102.802-16.457 102.802-78.281-0.018-48.658-24.521-81.938-87.077-81.938zM722.651 322.158c-72.046 0-120.722 39.15-120.722 125.842 0 85.961 48.311 125.824 120.722 125.824 72.795 0 120.722-39.515 120.722-125.824-0.018-86.693-48.658-125.842-120.722-125.842z" />
<glyph unicode="&#xe62c;" d="M467.383 529.938c-10.24 0-20.846-0.366-34.011-1.463v-74.258h38.053c24.503 0 46.098 2.56 46.098 38.784-0.037 27.794-14.665 36.937-50.139 36.937zM722.651 530.67c-49.737 0-65.115-29.623-65.115-82.67 0-52.681 15.378-82.688 65.115-82.688 49.755 0 65.134 30.007 65.134 82.688-0.018 52.315-15.397 82.67-65.134 82.67zM859.429 886.857h-694.857c-54.674 0-91.429-36.754-91.429-91.429v-694.857c0-56.393 35.035-91.429 91.429-91.429h694.857c54.674 0 91.429 36.754 91.429 91.429v694.857c0 56.393-35.035 91.429-91.429 91.429zM343.79 525.184h-109.733v-53.76h99.127v-45.001h-99.127v-100.59h-53.394v243.986h163.145v-44.635zM482.743 412.526h-49.39v-86.693h-53.394v242.158c20.846 2.194 55.607 4.754 87.058 4.754 53.778 0 102.802-16.457 102.802-78.281-0.018-48.658-24.521-81.938-87.077-81.938zM722.651 322.158c-72.046 0-120.722 39.15-120.722 125.842 0 85.961 48.311 125.824 120.722 125.824 72.795 0 120.722-39.515 120.722-125.824-0.018-86.693-48.658-125.842-120.722-125.842z" />
<glyph unicode="&#xe62d;" d="M909.934 523.685c-4.315 13.221-15.744 22.875-29.531 24.869l-232.777 33.847-104.119 210.926c-6.162 12.489-18.889 20.389-32.786 20.389-13.934 0-26.642-7.899-32.805-20.389l-104.101-210.926-232.777-33.847c-13.787-1.993-25.234-11.666-29.531-24.869-4.279-13.257-0.713-27.794 9.253-37.504l168.448-164.169-39.771-231.863c-2.359-13.714 3.291-27.575 14.555-35.767 11.264-8.174 26.203-9.271 38.528-2.761l208.219 109.44 208.201-109.44c5.339-2.816 11.191-4.206 17.024-4.206 7.57 0 15.122 2.359 21.504 6.985 11.246 8.192 16.896 22.053 14.537 35.767l-39.753 231.863 168.448 164.169c9.929 9.691 13.513 24.229 9.234 37.486z" />
<glyph unicode="&#xe62e;" d="M256 95.616l-223.433 145.243c-33.627 22.4-42.715 67.822-20.279 101.431 22.4 33.609 67.822 42.679 101.431 20.279l105.71-79.141v457.143c0 40.393 32.75 73.143 73.125 73.143 40.393 0 73.143-32.75 73.143-73.143v-457.143l105.71 79.141c12.471 8.302 26.551 12.288 40.503 12.288 23.643 0 46.83-11.429 60.928-32.567 22.4-33.609 13.33-79.031-20.279-101.431l-223.433-145.225c-28.288-18.304-45.714-18.304-73.125-0.018zM694.839 800l-223.433-144.859c-33.609-22.418-42.679-67.822-20.279-101.431 22.4-33.609 67.822-42.697 101.431-20.279l105.71 79.141v-457.143c0-40.393 32.768-73.143 73.161-73.143 40.375 0 73.106 32.75 73.106 73.143v457.143l105.71-79.141c12.489-8.32 26.569-12.306 40.503-12.306 23.643 0 46.848 11.447 60.928 32.585 22.437 33.609 13.33 79.013-20.279 101.431l-223.415 144.859c-28.288 18.286-45.714 18.286-73.143 0z" />
<glyph unicode="&#xe62f;" d="M467.383 529.938c-10.24 0-20.846-0.366-34.011-1.463v-74.258h38.053c24.503 0 46.098 2.56 46.098 38.784-0.037 27.794-14.665 36.937-50.139 36.937zM722.651 530.67c-49.737 0-65.115-29.623-65.115-82.67 0-52.681 15.378-82.688 65.115-82.688 49.755 0 65.134 30.007 65.134 82.688-0.018 52.315-15.397 82.67-65.134 82.67zM859.429 886.857h-694.857c-54.674 0-91.429-36.754-91.429-91.429v-694.857c0-56.393 35.035-91.429 91.429-91.429h694.857c54.674 0 91.429 36.754 91.429 91.429v694.857c0 56.393-35.035 91.429-91.429 91.429zM343.79 525.184h-109.733v-53.76h99.127v-45.001h-99.127v-100.59h-53.394v243.986h163.145v-44.635zM482.743 412.526h-49.39v-86.693h-53.394v242.158c20.846 2.194 55.607 4.754 87.058 4.754 53.778 0 102.802-16.457 102.802-78.281-0.018-48.658-24.521-81.938-87.077-81.938zM722.651 322.158c-72.046 0-120.722 39.15-120.722 125.842 0 85.961 48.311 125.824 120.722 125.824 72.795 0 120.722-39.515 120.722-125.824-0.018-86.693-48.658-125.842-120.722-125.842z" />
<glyph unicode="&#xe630;" d="M704 960h-374.857c-55.442 0-100.571-45.129-100.571-100.571v-749.714c0-55.442 45.129-100.571 100.571-100.571h365.714c60.507 0 109.714 49.207 109.714 109.714v740.571c0 55.442-45.129 100.571-100.571 100.571zM402.286 82.286c-20.206 0-36.571 16.384-36.571 36.571s16.366 36.571 36.571 36.571c20.187 0 36.571-16.384 36.571-36.571s-16.384-36.571-36.571-36.571zM621.714 82.286h-73.143c-20.206 0-36.571 16.384-36.571 36.571s16.366 36.571 36.571 36.571h73.143c20.187 0 36.571-16.384 36.571-36.571s-16.384-36.571-36.571-36.571zM731.429 228.571h-429.714v630.857c0 15.122 12.306 27.429 27.429 27.429h374.857c15.122 0 27.429-12.306 27.429-27.429v-630.857z" />
<glyph unicode="&#xe631;" d="M467.383 529.938c-10.24 0-20.846-0.366-34.011-1.463v-74.258h38.053c24.503 0 46.098 2.56 46.098 38.784-0.037 27.794-14.665 36.937-50.139 36.937zM722.651 530.67c-49.737 0-65.115-29.623-65.115-82.67 0-52.681 15.378-82.688 65.115-82.688 49.755 0 65.134 30.007 65.134 82.688-0.018 52.315-15.397 82.67-65.134 82.67zM859.429 886.857h-694.857c-54.674 0-91.429-36.754-91.429-91.429v-694.857c0-56.393 35.035-91.429 91.429-91.429h694.857c54.674 0 91.429 36.754 91.429 91.429v694.857c0 56.393-35.035 91.429-91.429 91.429zM343.79 525.184h-109.733v-53.76h99.127v-45.001h-99.127v-100.59h-53.394v243.986h163.145v-44.635zM482.743 412.526h-49.39v-86.693h-53.394v242.158c20.846 2.194 55.607 4.754 87.058 4.754 53.778 0 102.802-16.457 102.802-78.281-0.018-48.658-24.521-81.938-87.077-81.938zM722.651 322.158c-72.046 0-120.722 39.15-120.722 125.842 0 85.961 48.311 125.824 120.722 125.824 72.795 0 120.722-39.515 120.722-125.824-0.018-86.693-48.658-125.842-120.722-125.842z" />
<glyph unicode="&#xe632;" d="M467.383 529.938c-10.24 0-20.846-0.366-34.011-1.463v-74.258h38.053c24.503 0 46.098 2.56 46.098 38.784-0.037 27.794-14.665 36.937-50.139 36.937zM722.651 530.67c-49.737 0-65.115-29.623-65.115-82.67 0-52.681 15.378-82.688 65.115-82.688 49.755 0 65.134 30.007 65.134 82.688-0.018 52.315-15.397 82.67-65.134 82.67zM859.429 886.857h-694.857c-54.674 0-91.429-36.754-91.429-91.429v-694.857c0-56.393 35.035-91.429 91.429-91.429h694.857c54.674 0 91.429 36.754 91.429 91.429v694.857c0 56.393-35.035 91.429-91.429 91.429zM343.79 525.184h-109.733v-53.76h99.127v-45.001h-99.127v-100.59h-53.394v243.986h163.145v-44.635zM482.743 412.526h-49.39v-86.693h-53.394v242.158c20.846 2.194 55.607 4.754 87.058 4.754 53.778 0 102.802-16.457 102.802-78.281-0.018-48.658-24.521-81.938-87.077-81.938zM722.651 322.158c-72.046 0-120.722 39.15-120.722 125.842 0 85.961 48.311 125.824 120.722 125.824 72.795 0 120.722-39.515 120.722-125.824-0.018-86.693-48.658-125.842-120.722-125.842z" />
<glyph unicode="&#xe633;" d="M768 886.857h-512c-20.206 0-36.571-16.384-36.571-36.571v-731.429c0-20.187 16.366-36.571 36.571-36.571h256v-109.714c0-13.477 7.424-25.874 19.328-32.256 5.394-2.889 11.319-4.315 17.243-4.315 7.095 0 14.171 2.066 20.279 6.144l219.429 146.286c10.185 6.784 16.293 18.194 16.293 30.427v731.429c0 18.286-18.286 36.571-36.571 36.571zM292.571 155.429v658.286h354.633l-118.93-79.287c-10.167-6.784-16.274-18.194-16.274-30.427v-548.571h-219.429z" />
<glyph unicode="&#xe634;" d="M1022.72 619.008l0.073 0.11-0.183 0.384c-0.073 0.146-0.146 0.274-0.201 0.421l-71.552 157.221c-18.286 36.571-54.857 36.571-54.857 36.571h-768c0 0-36.571 0-54.857-36.571l-71.387-157.001c-0.146-0.293-0.293-0.549-0.384-0.841l-0.219-0.494 0.091-0.146c-0.713-1.92-1.243-3.931-1.243-6.089 0-10.094 8.174-18.286 18.286-18.286h54.857v-384c0-36.571 18.286-54.857 54.857-54.857h768c36.571 0 54.857 18.286 54.857 54.857v384h54.857c10.112 0 18.286 8.192 18.286 18.286 0 2.286-0.53 4.407-1.28 6.437zM365.714 402.286c0-15.141-12.288-27.429-27.429-27.429l-166.181 0.165c-14.391 0.841-25.819 12.654-25.819 27.264v164.571c0 15.141 12.288 27.429 27.429 27.429h164.571c15.141 0 27.429-12.288 27.429-27.429v-164.571zM585.143 256c0-15.141-12.288-27.429-27.429-27.429h-92.891l-0.146 0.165c-14.391 0.841-25.819 12.654-25.819 27.264v310.857c0 15.141 12.288 27.429 27.429 27.429h91.429c15.141 0 27.429-12.288 27.429-27.429v-310.857zM877.714 402.286c0-15.141-12.288-27.429-27.429-27.429l-166.181 0.165c-14.391 0.841-25.819 12.654-25.819 27.264v164.571c0 15.141 12.288 27.429 27.429 27.429h164.571c15.141 0 27.429-12.288 27.429-27.429v-164.571z" />
<glyph unicode="&#xe635;" d="M467.383 529.938c-10.24 0-20.846-0.366-34.011-1.463v-74.258h38.053c24.503 0 46.098 2.56 46.098 38.784-0.037 27.794-14.665 36.937-50.139 36.937zM722.651 530.67c-49.737 0-65.115-29.623-65.115-82.67 0-52.681 15.378-82.688 65.115-82.688 49.755 0 65.134 30.007 65.134 82.688-0.018 52.315-15.397 82.67-65.134 82.67zM859.429 886.857h-694.857c-54.674 0-91.429-36.754-91.429-91.429v-694.857c0-56.393 35.035-91.429 91.429-91.429h694.857c54.674 0 91.429 36.754 91.429 91.429v694.857c0 56.393-35.035 91.429-91.429 91.429zM343.79 525.184h-109.733v-53.76h99.127v-45.001h-99.127v-100.59h-53.394v243.986h163.145v-44.635zM482.743 412.526h-49.39v-86.693h-53.394v242.158c20.846 2.194 55.607 4.754 87.058 4.754 53.778 0 102.802-16.457 102.802-78.281-0.018-48.658-24.521-81.938-87.077-81.938zM722.651 322.158c-72.046 0-120.722 39.15-120.722 125.842 0 85.961 48.311 125.824 120.722 125.824 72.795 0 120.722-39.515 120.722-125.824-0.018-86.693-48.658-125.842-120.722-125.842z" />
<glyph unicode="&#xe636;" d="M467.383 529.938c-10.24 0-20.846-0.366-34.011-1.463v-74.258h38.053c24.503 0 46.098 2.56 46.098 38.784-0.037 27.794-14.665 36.937-50.139 36.937zM722.651 530.67c-49.737 0-65.115-29.623-65.115-82.67 0-52.681 15.378-82.688 65.115-82.688 49.755 0 65.134 30.007 65.134 82.688-0.018 52.315-15.397 82.67-65.134 82.67zM859.429 886.857h-694.857c-54.674 0-91.429-36.754-91.429-91.429v-694.857c0-56.393 35.035-91.429 91.429-91.429h694.857c54.674 0 91.429 36.754 91.429 91.429v694.857c0 56.393-35.035 91.429-91.429 91.429zM343.79 525.184h-109.733v-53.76h99.127v-45.001h-99.127v-100.59h-53.394v243.986h163.145v-44.635zM482.743 412.526h-49.39v-86.693h-53.394v242.158c20.846 2.194 55.607 4.754 87.058 4.754 53.778 0 102.802-16.457 102.802-78.281-0.018-48.658-24.521-81.938-87.077-81.938zM722.651 322.158c-72.046 0-120.722 39.15-120.722 125.842 0 85.961 48.311 125.824 120.722 125.824 72.795 0 120.722-39.515 120.722-125.824-0.018-86.693-48.658-125.842-120.722-125.842z" />
<glyph unicode="&#xe637;" d="M467.383 529.938c-10.24 0-20.846-0.366-34.011-1.463v-74.258h38.053c24.503 0 46.098 2.56 46.098 38.784-0.037 27.794-14.665 36.937-50.139 36.937zM722.651 530.67c-49.737 0-65.115-29.623-65.115-82.67 0-52.681 15.378-82.688 65.115-82.688 49.755 0 65.134 30.007 65.134 82.688-0.018 52.315-15.397 82.67-65.134 82.67zM859.429 886.857h-694.857c-54.674 0-91.429-36.754-91.429-91.429v-694.857c0-56.393 35.035-91.429 91.429-91.429h694.857c54.674 0 91.429 36.754 91.429 91.429v694.857c0 56.393-35.035 91.429-91.429 91.429zM343.79 525.184h-109.733v-53.76h99.127v-45.001h-99.127v-100.59h-53.394v243.986h163.145v-44.635zM482.743 412.526h-49.39v-86.693h-53.394v242.158c20.846 2.194 55.607 4.754 87.058 4.754 53.778 0 102.802-16.457 102.802-78.281-0.018-48.658-24.521-81.938-87.077-81.938zM722.651 322.158c-72.046 0-120.722 39.15-120.722 125.842 0 85.961 48.311 125.824 120.722 125.824 72.795 0 120.722-39.515 120.722-125.824-0.018-86.693-48.658-125.842-120.722-125.842z" />
<glyph unicode="&#xe638;" d="M877.714 886.857h-365.714c-40.393 0-73.143-32.75-73.143-73.143s32.75-73.143 73.143-73.143h154.789c-126.482-119.333-251.136-307.803-300.014-467.31-4.407-14.354 5.083-31.634 21.998-40.32 16.347-8.539 36.937-3.785 53.522 18.688 78.72 106.697 246.912 312.411 362.277 371.035v-174.665c0-40.393 32.75-73.143 73.143-73.143s73.143 32.75 73.143 73.143v365.714c0 40.393-32.75 73.143-73.143 73.143zM841.143 228.571c-20.187 0-36.571-16.384-36.571-36.571v-109.714h-658.286v658.286h109.714c20.187 0 36.571 16.384 36.571 36.571s-16.384 36.571-36.571 36.571h-146.286c-20.187 0-36.571-16.384-36.571-36.571v-731.429c0-20.187 16.384-36.571 36.571-36.571h731.429c20.187 0 36.571 16.384 36.571 36.571v146.286c0 20.187-16.384 36.571-36.571 36.571z" />
<glyph unicode="&#xe639;" d="M923.703 519.918l-97.408 25.947c-12.818 41.106-33.518 78.793-60.306 111.25l39.15 88.137c7.406 16.64 1.426 36.187-14.043 45.861l-77.531 48.439c-14.043 8.759-32.256 7.022-44.361-4.297l-73.984-69.175c-26.624 6.949-54.418 11.063-83.218 11.063s-56.594-4.114-83.237-11.081l-73.947 69.138c-12.105 11.319-30.299 13.074-44.361 4.297l-62.025-38.747c-14.062-8.777-20.462-25.911-15.579-41.765l29.751-96.805c-27.392-31.854-48.75-68.955-62.427-109.623l-95.579-13.495c-18.048-2.542-31.451-17.993-31.451-36.206v-91.429c0-16.567 11.136-31.067 27.154-35.346l97.408-25.947c13.513-43.355 35.986-82.706 64.914-116.352l-29.751-96.823c-4.901-15.854 1.518-32.987 15.561-41.765l62.043-38.747c5.961-3.73 12.672-5.559 19.365-5.559 9.051 0 18.030 3.365 24.997 9.856l73.947 69.175c26.624-6.949 54.437-11.063 83.218-11.063 26.368 0 51.895 3.456 76.507 9.344l62.153-73.984c7.186-8.539 17.536-13.038 28.014-13.038 6.656 0 13.367 1.829 19.365 5.559l77.531 48.439c14.062 8.777 20.443 25.929 15.598 41.746l-29.787 96.859c28.928 33.646 51.401 72.997 64.914 116.352l97.408 25.947c16.018 4.279 27.154 18.779 27.154 35.346v73.143c0 16.567-11.136 31.067-27.154 35.346zM512 265.143c-101.010 0-182.857 81.883-182.857 182.857 0 100.992 81.847 182.857 182.857 182.857s182.857-81.865 182.857-182.857c0-100.974-81.847-182.857-182.857-182.857z" />
<glyph unicode="&#xe63a;" d="M467.383 529.938c-10.24 0-20.846-0.366-34.011-1.463v-74.258h38.053c24.503 0 46.098 2.56 46.098 38.784-0.037 27.794-14.665 36.937-50.139 36.937zM722.651 530.67c-49.737 0-65.115-29.623-65.115-82.67 0-52.681 15.378-82.688 65.115-82.688 49.755 0 65.134 30.007 65.134 82.688-0.018 52.315-15.397 82.67-65.134 82.67zM859.429 886.857h-694.857c-54.674 0-91.429-36.754-91.429-91.429v-694.857c0-56.393 35.035-91.429 91.429-91.429h694.857c54.674 0 91.429 36.754 91.429 91.429v694.857c0 56.393-35.035 91.429-91.429 91.429zM343.79 525.184h-109.733v-53.76h99.127v-45.001h-99.127v-100.59h-53.394v243.986h163.145v-44.635zM482.743 412.526h-49.39v-86.693h-53.394v242.158c20.846 2.194 55.607 4.754 87.058 4.754 53.778 0 102.802-16.457 102.802-78.281-0.018-48.658-24.521-81.938-87.077-81.938zM722.651 322.158c-72.046 0-120.722 39.15-120.722 125.842 0 85.961 48.311 125.824 120.722 125.824 72.795 0 120.722-39.515 120.722-125.824-0.018-86.693-48.658-125.842-120.722-125.842z" />
<glyph unicode="&#xe63b;" d="M512 960c-282.789 0-512-229.23-512-512s229.211-512 512-512 512 229.23 512 512-229.211 512-512 512zM731.429 374.857h-146.286v-146.286c0-40.393-32.75-73.143-73.143-73.143s-73.143 32.75-73.143 73.143v146.286h-146.286c-40.393 0-73.143 32.75-73.143 73.143s32.75 73.143 73.143 73.143h146.286v146.286c0 40.393 32.75 73.143 73.143 73.143s73.143-32.75 73.143-73.143v-146.286h146.286c40.393 0 73.143-32.75 73.143-73.143s-32.75-73.143-73.143-73.143z" />
<glyph unicode="&#xe63c;" d="M512 960c-282.789 0-512-229.23-512-512s229.211-512 512-512 512 229.23 512 512-229.211 512-512 512zM731.429 374.857h-438.857c-40.393 0-73.143 32.75-73.143 73.143s32.75 73.143 73.143 73.143h438.857c40.393 0 73.143-32.75 73.143-73.143s-32.75-73.143-73.143-73.143z" />
<glyph unicode="&#xe63d;" d="M913.865 173.294l0.421 0.421-159.067 159.067c32.933 55.186 52.187 119.442 52.187 188.361 0 203.538-164.992 368.53-368.53 368.53s-368.549-164.992-368.549-368.53 164.992-368.53 368.53-368.53c68.919 0 133.175 19.255 188.361 52.187l159.067-159.086 0.384 0.384c16.603-22.309 42.971-36.955 72.923-36.955 50.359 0 91.173 40.814 91.173 91.191 0.018 29.989-14.629 56.32-36.901 72.96zM438.857 301.714c-121.179 0-219.429 98.231-219.429 219.429s98.249 219.429 219.429 219.429c121.216 0 219.429-98.231 219.429-219.429s-98.213-219.429-219.429-219.429z" />
<glyph unicode="&#xe63e;" d="M663.387 342.034l0.146 0.165-61.97 61.952c12.709 20.773 20.151 45.129 20.151 71.278 0 75.758-61.385 137.143-137.143 137.143s-137.143-61.385-137.143-137.143 61.385-137.143 137.143-137.143c26.222 0 50.633 7.497 71.461 20.242l61.787-62.062 0.146 0.146c5.925-7.954 15.36-13.184 26.039-13.184 17.993 0 32.567 14.592 32.567 32.567 0 10.697-5.211 20.114-13.184 26.039zM484.571 393.143c-45.44 0-82.286 36.846-82.286 82.286s36.846 82.286 82.286 82.286 82.286-36.846 82.286-82.286-36.846-82.286-82.286-82.286z" />
<glyph unicode="&#xe63f;" d="M467.383 529.938c-10.24 0-20.846-0.366-34.011-1.463v-74.258h38.053c24.503 0 46.098 2.56 46.098 38.784-0.037 27.794-14.665 36.937-50.139 36.937zM722.651 530.67c-49.737 0-65.115-29.623-65.115-82.67 0-52.681 15.378-82.688 65.115-82.688 49.755 0 65.134 30.007 65.134 82.688-0.018 52.315-15.397 82.67-65.134 82.67zM859.429 886.857h-694.857c-54.674 0-91.429-36.754-91.429-91.429v-694.857c0-56.393 35.035-91.429 91.429-91.429h694.857c54.674 0 91.429 36.754 91.429 91.429v694.857c0 56.393-35.035 91.429-91.429 91.429zM343.79 525.184h-109.733v-53.76h99.127v-45.001h-99.127v-100.59h-53.394v243.986h163.145v-44.635zM482.743 412.526h-49.39v-86.693h-53.394v242.158c20.846 2.194 55.607 4.754 87.058 4.754 53.778 0 102.802-16.457 102.802-78.281-0.018-48.658-24.521-81.938-87.077-81.938zM722.651 322.158c-72.046 0-120.722 39.15-120.722 125.842 0 85.961 48.311 125.824 120.722 125.824 72.795 0 120.722-39.515 120.722-125.824-0.018-86.693-48.658-125.842-120.722-125.842z" />
<glyph unicode="&#xe640;" d="M467.383 529.938c-10.24 0-20.846-0.366-34.011-1.463v-74.258h38.053c24.503 0 46.098 2.56 46.098 38.784-0.037 27.794-14.665 36.937-50.139 36.937zM722.651 530.67c-49.737 0-65.115-29.623-65.115-82.67 0-52.681 15.378-82.688 65.115-82.688 49.755 0 65.134 30.007 65.134 82.688-0.018 52.315-15.397 82.67-65.134 82.67zM859.429 886.857h-694.857c-54.674 0-91.429-36.754-91.429-91.429v-694.857c0-56.393 35.035-91.429 91.429-91.429h694.857c54.674 0 91.429 36.754 91.429 91.429v694.857c0 56.393-35.035 91.429-91.429 91.429zM343.79 525.184h-109.733v-53.76h99.127v-45.001h-99.127v-100.59h-53.394v243.986h163.145v-44.635zM482.743 412.526h-49.39v-86.693h-53.394v242.158c20.846 2.194 55.607 4.754 87.058 4.754 53.778 0 102.802-16.457 102.802-78.281-0.018-48.658-24.521-81.938-87.077-81.938zM722.651 322.158c-72.046 0-120.722 39.15-120.722 125.842 0 85.961 48.311 125.824 120.722 125.824 72.795 0 120.722-39.515 120.722-125.824-0.018-86.693-48.658-125.842-120.722-125.842z" />
<glyph unicode="&#xe641;" d="M467.383 529.938c-10.24 0-20.846-0.366-34.011-1.463v-74.258h38.053c24.503 0 46.098 2.56 46.098 38.784-0.037 27.794-14.665 36.937-50.139 36.937zM722.651 530.67c-49.737 0-65.115-29.623-65.115-82.67 0-52.681 15.378-82.688 65.115-82.688 49.755 0 65.134 30.007 65.134 82.688-0.018 52.315-15.397 82.67-65.134 82.67zM859.429 886.857h-694.857c-54.674 0-91.429-36.754-91.429-91.429v-694.857c0-56.393 35.035-91.429 91.429-91.429h694.857c54.674 0 91.429 36.754 91.429 91.429v694.857c0 56.393-35.035 91.429-91.429 91.429zM343.79 525.184h-109.733v-53.76h99.127v-45.001h-99.127v-100.59h-53.394v243.986h163.145v-44.635zM482.743 412.526h-49.39v-86.693h-53.394v242.158c20.846 2.194 55.607 4.754 87.058 4.754 53.778 0 102.802-16.457 102.802-78.281-0.018-48.658-24.521-81.938-87.077-81.938zM722.651 322.158c-72.046 0-120.722 39.15-120.722 125.842 0 85.961 48.311 125.824 120.722 125.824 72.795 0 120.722-39.515 120.722-125.824-0.018-86.693-48.658-125.842-120.722-125.842z" />
<glyph unicode="&#xe642;" d="M146.286 521.143h292.571c40.32 0 73.143 32.805 73.143 73.143v292.571h54.857c107.666 0 164.571-56.905 164.571-164.571v-83.986l-85.65 74.935c-15.177 13.294-38.29 11.739-51.602-3.438-13.275-15.214-11.739-38.309 3.474-51.602l146.286-128c6.912-5.047 13.769-9.051 24.064-9.051 11.136 0 16.293 3.438 24.064 9.051l146.286 128.018c15.214 13.312 16.75 36.407 3.438 51.602-13.294 15.177-36.407 16.75-51.584 3.438l-85.632-74.953v83.986c0 148.864-88.85 237.714-237.714 237.714h-420.571c-40.32 0-73.143-32.805-73.143-73.143v-292.571c0-40.338 32.823-73.143 73.143-73.143zM877.714 374.857h-292.571c-40.32 0-73.143-32.805-73.143-73.143v-292.571h-54.857c-107.666 0-164.571 56.905-164.571 164.571v83.986l85.65-74.935c15.214-13.312 38.309-11.758 51.602 3.438 13.275 15.214 11.739 38.309-3.474 51.602l-146.286 128c-3.95 2.944-10.057 9.051-24.064 9.051-15.141 0-20.681-6.29-24.082-9.051l-146.286-128.037c-15.195-13.312-16.731-36.407-3.438-51.602 7.241-8.247 17.353-12.489 27.538-12.489 8.558 0 17.115 2.981 24.064 9.051l85.632 74.953v-83.968c0-148.864 88.85-237.714 237.714-237.714h420.571c40.32 0 73.143 32.805 73.143 73.143v292.571c0 40.338-32.823 73.143-73.143 73.143z" />
<glyph unicode="&#xe643;" d="M467.383 529.938c-10.24 0-20.846-0.366-34.011-1.463v-74.258h38.053c24.503 0 46.098 2.56 46.098 38.784-0.037 27.794-14.665 36.937-50.139 36.937zM722.651 530.67c-49.737 0-65.115-29.623-65.115-82.67 0-52.681 15.378-82.688 65.115-82.688 49.755 0 65.134 30.007 65.134 82.688-0.018 52.315-15.397 82.67-65.134 82.67zM859.429 886.857h-694.857c-54.674 0-91.429-36.754-91.429-91.429v-694.857c0-56.393 35.035-91.429 91.429-91.429h694.857c54.674 0 91.429 36.754 91.429 91.429v694.857c0 56.393-35.035 91.429-91.429 91.429zM343.79 525.184h-109.733v-53.76h99.127v-45.001h-99.127v-100.59h-53.394v243.986h163.145v-44.635zM482.743 412.526h-49.39v-86.693h-53.394v242.158c20.846 2.194 55.607 4.754 87.058 4.754 53.778 0 102.802-16.457 102.802-78.281-0.018-48.658-24.521-81.938-87.077-81.938zM722.651 322.158c-72.046 0-120.722 39.15-120.722 125.842 0 85.961 48.311 125.824 120.722 125.824 72.795 0 120.722-39.515 120.722-125.824-0.018-86.693-48.658-125.842-120.722-125.842z" />
<glyph unicode="&#xe644;" d="M467.383 529.938c-10.24 0-20.846-0.366-34.011-1.463v-74.258h38.053c24.503 0 46.098 2.56 46.098 38.784-0.037 27.794-14.665 36.937-50.139 36.937zM722.651 530.67c-49.737 0-65.115-29.623-65.115-82.67 0-52.681 15.378-82.688 65.115-82.688 49.755 0 65.134 30.007 65.134 82.688-0.018 52.315-15.397 82.67-65.134 82.67zM859.429 886.857h-694.857c-54.674 0-91.429-36.754-91.429-91.429v-694.857c0-56.393 35.035-91.429 91.429-91.429h694.857c54.674 0 91.429 36.754 91.429 91.429v694.857c0 56.393-35.035 91.429-91.429 91.429zM343.79 525.184h-109.733v-53.76h99.127v-45.001h-99.127v-100.59h-53.394v243.986h163.145v-44.635zM482.743 412.526h-49.39v-86.693h-53.394v242.158c20.846 2.194 55.607 4.754 87.058 4.754 53.778 0 102.802-16.457 102.802-78.281-0.018-48.658-24.521-81.938-87.077-81.938zM722.651 322.158c-72.046 0-120.722 39.15-120.722 125.842 0 85.961 48.311 125.824 120.722 125.824 72.795 0 120.722-39.515 120.722-125.824-0.018-86.693-48.658-125.842-120.722-125.842z" />
<glyph unicode="&#xe645;" d="M512 283.429c20.169 0 36.571 16.384 36.571 36.571v109.714c0 9.691-3.858 18.999-10.715 25.856l-182.857 182.857c-14.281 14.281-37.467 14.281-51.712 0-14.281-14.281-14.281-37.431 0-51.712l172.142-172.142v-94.574c0-20.187 16.347-36.571 36.571-36.571zM950.857 960c-40.393 0-73.143-32.75-73.143-73.143v-90.441c-97.499 104.082-227.328 163.584-365.714 163.584-282.331 0-512-229.687-512-512s229.669-512 512-512c209.719 0 396.069 125.605 474.752 319.982 15.177 37.449-2.889 80.091-40.357 95.25-37.431 15.232-80.073-2.926-95.214-40.357-56.247-138.862-189.367-228.59-339.182-228.59-201.637 0-365.714 164.059-365.714 365.714s164.078 365.714 365.714 365.714c108.855 0 211.145-53.778 283.648-146.286h-137.362c-40.393 0-73.143-32.75-73.143-73.143s32.75-73.143 73.143-73.143h292.571c40.393 0 73.143 32.457 73.143 72.85v292.864c0 40.393-32.75 73.143-73.143 73.143z" />
<glyph unicode="&#xe646;" d="M467.383 529.938c-10.24 0-20.846-0.366-34.011-1.463v-74.258h38.053c24.503 0 46.098 2.56 46.098 38.784-0.037 27.794-14.665 36.937-50.139 36.937zM722.651 530.67c-49.737 0-65.115-29.623-65.115-82.67 0-52.681 15.378-82.688 65.115-82.688 49.755 0 65.134 30.007 65.134 82.688-0.018 52.315-15.397 82.67-65.134 82.67zM859.429 886.857h-694.857c-54.674 0-91.429-36.754-91.429-91.429v-694.857c0-56.393 35.035-91.429 91.429-91.429h694.857c54.674 0 91.429 36.754 91.429 91.429v694.857c0 56.393-35.035 91.429-91.429 91.429zM343.79 525.184h-109.733v-53.76h99.127v-45.001h-99.127v-100.59h-53.394v243.986h163.145v-44.635zM482.743 412.526h-49.39v-86.693h-53.394v242.158c20.846 2.194 55.607 4.754 87.058 4.754 53.778 0 102.802-16.457 102.802-78.281-0.018-48.658-24.521-81.938-87.077-81.938zM722.651 322.158c-72.046 0-120.722 39.15-120.722 125.842 0 85.961 48.311 125.824 120.722 125.824 72.795 0 120.722-39.515 120.722-125.824-0.018-86.693-48.658-125.842-120.722-125.842z" />
<glyph unicode="&#xe647;" d="M669.239 667.429l53.193 146.286h-64.146c0 40.393-32.75 73.143-73.143 73.143h-146.286c-40.393 0-73.143-32.75-73.143-73.143h-64.146l53.193-146.286h314.478zM841.143 813.714h-40.887l-71.040-195.365c-5.248-14.446-18.981-24.064-34.359-24.064h-365.714c-15.378 0-29.111 9.618-34.359 24.064l-71.040 195.365h-40.887c-20.187 0-36.571-16.384-36.571-36.571v-731.429c0-20.187 16.384-36.571 36.571-36.571h658.286c20.187 0 36.571 16.384 36.571 36.571v731.429c0 20.187-16.384 36.571-36.571 36.571zM694.857 228.571h-365.714c-20.187 0-36.571 16.384-36.571 36.571s16.384 36.571 36.571 36.571h365.714c20.187 0 36.571-16.384 36.571-36.571s-16.384-36.571-36.571-36.571zM694.857 374.857h-365.714c-20.187 0-36.571 16.384-36.571 36.571s16.384 36.571 36.571 36.571h365.714c20.187 0 36.571-16.384 36.571-36.571s-16.384-36.571-36.571-36.571z" />
<glyph unicode="&#xe648;" d="M467.383 529.938c-10.24 0-20.846-0.366-34.011-1.463v-74.258h38.053c24.503 0 46.098 2.56 46.098 38.784-0.037 27.794-14.665 36.937-50.139 36.937zM722.651 530.67c-49.737 0-65.115-29.623-65.115-82.67 0-52.681 15.378-82.688 65.115-82.688 49.755 0 65.134 30.007 65.134 82.688-0.018 52.315-15.397 82.67-65.134 82.67zM859.429 886.857h-694.857c-54.674 0-91.429-36.754-91.429-91.429v-694.857c0-56.393 35.035-91.429 91.429-91.429h694.857c54.674 0 91.429 36.754 91.429 91.429v694.857c0 56.393-35.035 91.429-91.429 91.429zM343.79 525.184h-109.733v-53.76h99.127v-45.001h-99.127v-100.59h-53.394v243.986h163.145v-44.635zM482.743 412.526h-49.39v-86.693h-53.394v242.158c20.846 2.194 55.607 4.754 87.058 4.754 53.778 0 102.802-16.457 102.802-78.281-0.018-48.658-24.521-81.938-87.077-81.938zM722.651 322.158c-72.046 0-120.722 39.15-120.722 125.842 0 85.961 48.311 125.824 120.722 125.824 72.795 0 120.722-39.515 120.722-125.824-0.018-86.693-48.658-125.842-120.722-125.842z" />
<glyph unicode="&#xe649;" d="M467.383 529.938c-10.24 0-20.846-0.366-34.011-1.463v-74.258h38.053c24.503 0 46.098 2.56 46.098 38.784-0.037 27.794-14.665 36.937-50.139 36.937zM722.651 530.67c-49.737 0-65.115-29.623-65.115-82.67 0-52.681 15.378-82.688 65.115-82.688 49.755 0 65.134 30.007 65.134 82.688-0.018 52.315-15.397 82.67-65.134 82.67zM859.429 886.857h-694.857c-54.674 0-91.429-36.754-91.429-91.429v-694.857c0-56.393 35.035-91.429 91.429-91.429h694.857c54.674 0 91.429 36.754 91.429 91.429v694.857c0 56.393-35.035 91.429-91.429 91.429zM343.79 525.184h-109.733v-53.76h99.127v-45.001h-99.127v-100.59h-53.394v243.986h163.145v-44.635zM482.743 412.526h-49.39v-86.693h-53.394v242.158c20.846 2.194 55.607 4.754 87.058 4.754 53.778 0 102.802-16.457 102.802-78.281-0.018-48.658-24.521-81.938-87.077-81.938zM722.651 322.158c-72.046 0-120.722 39.15-120.722 125.842 0 85.961 48.311 125.824 120.722 125.824 72.795 0 120.722-39.515 120.722-125.824-0.018-86.693-48.658-125.842-120.722-125.842z" />
<glyph unicode="&#xe64a;" d="M467.383 529.938c-10.24 0-20.846-0.366-34.011-1.463v-74.258h38.053c24.503 0 46.098 2.56 46.098 38.784-0.037 27.794-14.665 36.937-50.139 36.937zM722.651 530.67c-49.737 0-65.115-29.623-65.115-82.67 0-52.681 15.378-82.688 65.115-82.688 49.755 0 65.134 30.007 65.134 82.688-0.018 52.315-15.397 82.67-65.134 82.67zM859.429 886.857h-694.857c-54.674 0-91.429-36.754-91.429-91.429v-694.857c0-56.393 35.035-91.429 91.429-91.429h694.857c54.674 0 91.429 36.754 91.429 91.429v694.857c0 56.393-35.035 91.429-91.429 91.429zM343.79 525.184h-109.733v-53.76h99.127v-45.001h-99.127v-100.59h-53.394v243.986h163.145v-44.635zM482.743 412.526h-49.39v-86.693h-53.394v242.158c20.846 2.194 55.607 4.754 87.058 4.754 53.778 0 102.802-16.457 102.802-78.281-0.018-48.658-24.521-81.938-87.077-81.938zM722.651 322.158c-72.046 0-120.722 39.15-120.722 125.842 0 85.961 48.311 125.824 120.722 125.824 72.795 0 120.722-39.515 120.722-125.824-0.018-86.693-48.658-125.842-120.722-125.842z" />
<glyph unicode="&#xe64b;" d="M467.383 529.938c-10.24 0-20.846-0.366-34.011-1.463v-74.258h38.053c24.503 0 46.098 2.56 46.098 38.784-0.037 27.794-14.665 36.937-50.139 36.937zM722.651 530.67c-49.737 0-65.115-29.623-65.115-82.67 0-52.681 15.378-82.688 65.115-82.688 49.755 0 65.134 30.007 65.134 82.688-0.018 52.315-15.397 82.67-65.134 82.67zM859.429 886.857h-694.857c-54.674 0-91.429-36.754-91.429-91.429v-694.857c0-56.393 35.035-91.429 91.429-91.429h694.857c54.674 0 91.429 36.754 91.429 91.429v694.857c0 56.393-35.035 91.429-91.429 91.429zM343.79 525.184h-109.733v-53.76h99.127v-45.001h-99.127v-100.59h-53.394v243.986h163.145v-44.635zM482.743 412.526h-49.39v-86.693h-53.394v242.158c20.846 2.194 55.607 4.754 87.058 4.754 53.778 0 102.802-16.457 102.802-78.281-0.018-48.658-24.521-81.938-87.077-81.938zM722.651 322.158c-72.046 0-120.722 39.15-120.722 125.842 0 85.961 48.311 125.824 120.722 125.824 72.795 0 120.722-39.515 120.722-125.824-0.018-86.693-48.658-125.842-120.722-125.842z" />
<glyph unicode="&#xe64c;" d="M950.857 594.286h-73.143v182.857c0 60.507-49.207 109.714-109.714 109.714h-512c-60.507 0-109.714-49.207-109.714-109.714v-182.857h-73.143c-40.393 0-73.143-32.75-73.143-73.143v-292.571c0-40.393 32.75-73.143 73.143-73.143h79.543c15.104-42.533 55.662-73.143 103.314-73.143h512c47.653 0 88.21 30.61 103.314 73.143h79.543c40.393 0 73.143 32.75 73.143 73.143v292.571c0 40.393-32.75 73.143-73.143 73.143zM256 813.714h512c20.169 0 36.571-16.402 36.571-36.571v-329.143h-585.143v329.143c0 20.169 16.384 36.571 36.571 36.571zM768 155.429h-512c-20.187 0-36.571 16.402-36.571 36.59v109.696h585.143v-109.714c0-20.169-16.402-36.571-36.571-36.571z" />
<glyph unicode="&#xe64d;" d="M804.571 521.143h-219.429v219.429c0 40.393-32.75 73.143-73.143 73.143s-73.143-32.75-73.143-73.143v-219.429h-219.429c-40.393 0-73.143-32.75-73.143-73.143s32.75-73.143 73.143-73.143h219.429v-219.429c0-40.393 32.75-73.143 73.143-73.143s73.143 32.75 73.143 73.143v219.429h219.429c40.393 0 73.143 32.75 73.143 73.143s-32.75 73.143-73.143 73.143z" />
<glyph unicode="&#xe64e;" d="M467.383 529.938c-10.24 0-20.846-0.366-34.011-1.463v-74.258h38.053c24.503 0 46.098 2.56 46.098 38.784-0.037 27.794-14.665 36.937-50.139 36.937zM722.651 530.67c-49.737 0-65.115-29.623-65.115-82.67 0-52.681 15.378-82.688 65.115-82.688 49.755 0 65.134 30.007 65.134 82.688-0.018 52.315-15.397 82.67-65.134 82.67zM859.429 886.857h-694.857c-54.674 0-91.429-36.754-91.429-91.429v-694.857c0-56.393 35.035-91.429 91.429-91.429h694.857c54.674 0 91.429 36.754 91.429 91.429v694.857c0 56.393-35.035 91.429-91.429 91.429zM343.79 525.184h-109.733v-53.76h99.127v-45.001h-99.127v-100.59h-53.394v243.986h163.145v-44.635zM482.743 412.526h-49.39v-86.693h-53.394v242.158c20.846 2.194 55.607 4.754 87.058 4.754 53.778 0 102.802-16.457 102.802-78.281-0.018-48.658-24.521-81.938-87.077-81.938zM722.651 322.158c-72.046 0-120.722 39.15-120.722 125.842 0 85.961 48.311 125.824 120.722 125.824 72.795 0 120.722-39.515 120.722-125.824-0.018-86.693-48.658-125.842-120.722-125.842z" />
<glyph unicode="&#xe64f;" d="M877.714 448c0 28.069-15.854 52.425-39.003 64.713v0l-1.426 0.713c-0.439 0.219-0.859 0.439-1.28 0.567l-581.723 290.871c-10.277 5.632-22.29 8.85-34.853 8.85-40.43 0-73.143-32.713-73.143-73.143v-585.143c0-40.43 32.713-73.143 73.143-73.143 12.562 0 24.283 3.145 34.706 8.722v0l581.851 290.926c0.421 0.219 0.859 0.494 1.426 0.64l1.28 0.713c23.168 12.288 39.022 36.645 39.022 64.713z" />
<glyph unicode="&#xe650;" d="M467.383 529.938c-10.24 0-20.846-0.366-34.011-1.463v-74.258h38.053c24.503 0 46.098 2.56 46.098 38.784-0.037 27.794-14.665 36.937-50.139 36.937zM722.651 530.67c-49.737 0-65.115-29.623-65.115-82.67 0-52.681 15.378-82.688 65.115-82.688 49.755 0 65.134 30.007 65.134 82.688-0.018 52.315-15.397 82.67-65.134 82.67zM859.429 886.857h-694.857c-54.674 0-91.429-36.754-91.429-91.429v-694.857c0-56.393 35.035-91.429 91.429-91.429h694.857c54.674 0 91.429 36.754 91.429 91.429v694.857c0 56.393-35.035 91.429-91.429 91.429zM343.79 525.184h-109.733v-53.76h99.127v-45.001h-99.127v-100.59h-53.394v243.986h163.145v-44.635zM482.743 412.526h-49.39v-86.693h-53.394v242.158c20.846 2.194 55.607 4.754 87.058 4.754 53.778 0 102.802-16.457 102.802-78.281-0.018-48.658-24.521-81.938-87.077-81.938zM722.651 322.158c-72.046 0-120.722 39.15-120.722 125.842 0 85.961 48.311 125.824 120.722 125.824 72.795 0 120.722-39.515 120.722-125.824-0.018-86.693-48.658-125.842-120.722-125.842z" />
<glyph unicode="&#xe651;" d="M841.143 960h-512c-60.507 0-109.714-49.207-109.714-109.714v-36.571h-36.571c-60.507 0-109.714-49.207-109.714-109.714v-658.286c0-60.507 49.207-109.714 109.714-109.714h521.143c55.442 0 100.571 45.129 100.571 100.571v45.714h45.714c55.442 0 100.571 45.129 100.571 100.571v667.429c0 60.507-49.207 109.714-109.714 109.714zM201.143 82.286c-30.281 0-54.857 24.576-54.857 54.857s24.576 54.857 54.857 54.857c30.281 0 54.857-24.576 54.857-54.857 0-30.281-24.576-54.857-54.857-54.857zM201.143 301.714c-30.281 0-54.857 24.576-54.857 54.857s24.576 54.857 54.857 54.857c30.281 0 54.857-24.576 54.857-54.857 0-30.281-24.576-54.857-54.857-54.857zM201.143 521.143c-30.281 0-54.857 24.576-54.857 54.857s24.576 54.857 54.857 54.857c30.281 0 54.857-24.576 54.857-54.857 0-30.281-24.576-54.857-54.857-54.857zM694.857 82.286h-292.571c-20.187 0-36.571 16.384-36.571 36.571s16.384 36.571 36.571 36.571h292.571c20.187 0 36.571-16.384 36.571-36.571s-16.384-36.571-36.571-36.571zM694.857 301.714h-292.571c-20.187 0-36.571 16.384-36.571 36.571s16.384 36.571 36.571 36.571h292.571c20.187 0 36.571-16.384 36.571-36.571s-16.384-36.571-36.571-36.571zM694.857 521.143h-292.571c-20.187 0-36.571 16.384-36.571 36.571s16.384 36.571 36.571 36.571h292.571c20.187 0 36.571-16.384 36.571-36.571s-16.384-36.571-36.571-36.571zM877.714 182.857c0-15.122-12.306-27.429-27.429-27.429h-45.714v548.571c0 60.507-49.207 109.714-109.714 109.714h-402.286v36.571c0 20.169 16.402 36.571 36.571 36.571h512c20.169 0 36.571-16.402 36.571-36.571v-667.429z" />
<glyph unicode="&#xe652;" d="M467.383 529.938c-10.24 0-20.846-0.366-34.011-1.463v-74.258h38.053c24.503 0 46.098 2.56 46.098 38.784-0.037 27.794-14.665 36.937-50.139 36.937zM722.651 530.67c-49.737 0-65.115-29.623-65.115-82.67 0-52.681 15.378-82.688 65.115-82.688 49.755 0 65.134 30.007 65.134 82.688-0.018 52.315-15.397 82.67-65.134 82.67zM859.429 886.857h-694.857c-54.674 0-91.429-36.754-91.429-91.429v-694.857c0-56.393 35.035-91.429 91.429-91.429h694.857c54.674 0 91.429 36.754 91.429 91.429v694.857c0 56.393-35.035 91.429-91.429 91.429zM343.79 525.184h-109.733v-53.76h99.127v-45.001h-99.127v-100.59h-53.394v243.986h163.145v-44.635zM482.743 412.526h-49.39v-86.693h-53.394v242.158c20.846 2.194 55.607 4.754 87.058 4.754 53.778 0 102.802-16.457 102.802-78.281-0.018-48.658-24.521-81.938-87.077-81.938zM722.651 322.158c-72.046 0-120.722 39.15-120.722 125.842 0 85.961 48.311 125.824 120.722 125.824 72.795 0 120.722-39.515 120.722-125.824-0.018-86.693-48.658-125.842-120.722-125.842z" />
<glyph unicode="&#xe653;" d="M585.143 909.367v-388.224h388.206c0 214.418-173.787 388.224-388.206 388.224zM493.714 484.571v365.257c-213.687-9.563-384-185.783-384-401.829 0-222.171 180.114-402.286 402.286-402.286 216.027 0 392.247 170.313 401.829 384h-365.257c-30.299 0-54.857 24.558-54.857 54.857z" />
<glyph unicode="&#xe654;" d="M914.286 814.775h-512c-20.206 0-36.571-16.384-36.571-36.571v-204.032l-339.749-103.058c-9.289-2.816-17.079-9.198-21.65-17.774-4.571-8.558-5.577-18.578-2.743-27.831l140.928-464.585c2.816-9.289 9.198-17.079 17.755-21.65 5.358-2.853 11.282-4.315 17.243-4.315 3.547 0 7.15 0.512 10.606 1.573l457.984 138.935c9.289 2.816 17.061 9.216 21.632 17.774s5.577 18.578 2.743 27.849l-10.734 35.401h254.555c20.187 0 36.571 16.384 36.571 36.571v585.143c0 20.187-16.384 36.571-36.571 36.571zM877.714 741.632v-365.714h-438.857v365.714c0 0 438.857 0 438.857 0zM589.861 134.821l-387.986-117.687-119.698 394.606 283.538 85.979v-304.658c0-20.187 16.366-36.571 36.571-36.571h180.992l6.583-21.669z" />
<glyph unicode="&#xe655;" d="M467.383 529.938c-10.24 0-20.846-0.366-34.011-1.463v-74.258h38.053c24.503 0 46.098 2.56 46.098 38.784-0.037 27.794-14.665 36.937-50.139 36.937zM722.651 530.67c-49.737 0-65.115-29.623-65.115-82.67 0-52.681 15.378-82.688 65.115-82.688 49.755 0 65.134 30.007 65.134 82.688-0.018 52.315-15.397 82.67-65.134 82.67zM859.429 886.857h-694.857c-54.674 0-91.429-36.754-91.429-91.429v-694.857c0-56.393 35.035-91.429 91.429-91.429h694.857c54.674 0 91.429 36.754 91.429 91.429v694.857c0 56.393-35.035 91.429-91.429 91.429zM343.79 525.184h-109.733v-53.76h99.127v-45.001h-99.127v-100.59h-53.394v243.986h163.145v-44.635zM482.743 412.526h-49.39v-86.693h-53.394v242.158c20.846 2.194 55.607 4.754 87.058 4.754 53.778 0 102.802-16.457 102.802-78.281-0.018-48.658-24.521-81.938-87.077-81.938zM722.651 322.158c-72.046 0-120.722 39.15-120.722 125.842 0 85.961 48.311 125.824 120.722 125.824 72.795 0 120.722-39.515 120.722-125.824-0.018-86.693-48.658-125.842-120.722-125.842z" />
<glyph unicode="&#xe656;" d="M467.383 529.938c-10.24 0-20.846-0.366-34.011-1.463v-74.258h38.053c24.503 0 46.098 2.56 46.098 38.784-0.037 27.794-14.665 36.937-50.139 36.937zM722.651 530.67c-49.737 0-65.115-29.623-65.115-82.67 0-52.681 15.378-82.688 65.115-82.688 49.755 0 65.134 30.007 65.134 82.688-0.018 52.315-15.397 82.67-65.134 82.67zM859.429 886.857h-694.857c-54.674 0-91.429-36.754-91.429-91.429v-694.857c0-56.393 35.035-91.429 91.429-91.429h694.857c54.674 0 91.429 36.754 91.429 91.429v694.857c0 56.393-35.035 91.429-91.429 91.429zM343.79 525.184h-109.733v-53.76h99.127v-45.001h-99.127v-100.59h-53.394v243.986h163.145v-44.635zM482.743 412.526h-49.39v-86.693h-53.394v242.158c20.846 2.194 55.607 4.754 87.058 4.754 53.778 0 102.802-16.457 102.802-78.281-0.018-48.658-24.521-81.938-87.077-81.938zM722.651 322.158c-72.046 0-120.722 39.15-120.722 125.842 0 85.961 48.311 125.824 120.722 125.824 72.795 0 120.722-39.515 120.722-125.824-0.018-86.693-48.658-125.842-120.722-125.842z" />
<glyph unicode="&#xe657;" d="M467.383 529.938c-10.24 0-20.846-0.366-34.011-1.463v-74.258h38.053c24.503 0 46.098 2.56 46.098 38.784-0.037 27.794-14.665 36.937-50.139 36.937zM722.651 530.67c-49.737 0-65.115-29.623-65.115-82.67 0-52.681 15.378-82.688 65.115-82.688 49.755 0 65.134 30.007 65.134 82.688-0.018 52.315-15.397 82.67-65.134 82.67zM859.429 886.857h-694.857c-54.674 0-91.429-36.754-91.429-91.429v-694.857c0-56.393 35.035-91.429 91.429-91.429h694.857c54.674 0 91.429 36.754 91.429 91.429v694.857c0 56.393-35.035 91.429-91.429 91.429zM343.79 525.184h-109.733v-53.76h99.127v-45.001h-99.127v-100.59h-53.394v243.986h163.145v-44.635zM482.743 412.526h-49.39v-86.693h-53.394v242.158c20.846 2.194 55.607 4.754 87.058 4.754 53.778 0 102.802-16.457 102.802-78.281-0.018-48.658-24.521-81.938-87.077-81.938zM722.651 322.158c-72.046 0-120.722 39.15-120.722 125.842 0 85.961 48.311 125.824 120.722 125.824 72.795 0 120.722-39.515 120.722-125.824-0.018-86.693-48.658-125.842-120.722-125.842z" />
<glyph unicode="&#xe658;" d="M467.383 529.938c-10.24 0-20.846-0.366-34.011-1.463v-74.258h38.053c24.503 0 46.098 2.56 46.098 38.784-0.037 27.794-14.665 36.937-50.139 36.937zM722.651 530.67c-49.737 0-65.115-29.623-65.115-82.67 0-52.681 15.378-82.688 65.115-82.688 49.755 0 65.134 30.007 65.134 82.688-0.018 52.315-15.397 82.67-65.134 82.67zM859.429 886.857h-694.857c-54.674 0-91.429-36.754-91.429-91.429v-694.857c0-56.393 35.035-91.429 91.429-91.429h694.857c54.674 0 91.429 36.754 91.429 91.429v694.857c0 56.393-35.035 91.429-91.429 91.429zM343.79 525.184h-109.733v-53.76h99.127v-45.001h-99.127v-100.59h-53.394v243.986h163.145v-44.635zM482.743 412.526h-49.39v-86.693h-53.394v242.158c20.846 2.194 55.607 4.754 87.058 4.754 53.778 0 102.802-16.457 102.802-78.281-0.018-48.658-24.521-81.938-87.077-81.938zM722.651 322.158c-72.046 0-120.722 39.15-120.722 125.842 0 85.961 48.311 125.824 120.722 125.824 72.795 0 120.722-39.515 120.722-125.824-0.018-86.693-48.658-125.842-120.722-125.842z" />
<glyph unicode="&#xe659;" d="M329.143 813.714c-60.599 0-109.714-49.115-109.714-109.714v-512c0-60.581 49.115-109.714 109.714-109.714 60.581 0 109.714 49.134 109.714 109.714v512c0 60.599-49.134 109.714-109.714 109.714zM694.857 813.714c-60.599 0-109.714-49.115-109.714-109.714v-512c0-60.581 49.115-109.714 109.714-109.714 60.581 0 109.714 49.134 109.714 109.714v512c0 60.599-49.134 109.714-109.714 109.714z" />
<glyph unicode="&#xe65a;" d="M987.429 521.143h-561.317c-30.171 85.138-111.195 146.286-206.683 146.286-121.179 0-219.429-98.286-219.429-219.429 0-121.179 98.249-219.429 219.429-219.429s219.429 98.249 219.429 219.429h292.571v-109.714c0-20.187 16.366-36.571 36.571-36.571h146.286c20.187 0 36.571 16.384 36.571 36.571v109.714h36.571c20.187 0 36.571 16.384 36.571 36.571s-16.384 36.571-36.571 36.571zM219.429 338.286c-60.617 0-109.714 49.134-109.714 109.714 0 60.562 49.097 109.714 109.714 109.714 60.599 0 109.714-49.152 109.714-109.714 0-60.581-49.115-109.714-109.714-109.714z" />
<glyph unicode="&#xe65b;" d="M467.383 529.938c-10.24 0-20.846-0.366-34.011-1.463v-74.258h38.053c24.503 0 46.098 2.56 46.098 38.784-0.037 27.794-14.665 36.937-50.139 36.937zM722.651 530.67c-49.737 0-65.115-29.623-65.115-82.67 0-52.681 15.378-82.688 65.115-82.688 49.755 0 65.134 30.007 65.134 82.688-0.018 52.315-15.397 82.67-65.134 82.67zM859.429 886.857h-694.857c-54.674 0-91.429-36.754-91.429-91.429v-694.857c0-56.393 35.035-91.429 91.429-91.429h694.857c54.674 0 91.429 36.754 91.429 91.429v694.857c0 56.393-35.035 91.429-91.429 91.429zM343.79 525.184h-109.733v-53.76h99.127v-45.001h-99.127v-100.59h-53.394v243.986h163.145v-44.635zM482.743 412.526h-49.39v-86.693h-53.394v242.158c20.846 2.194 55.607 4.754 87.058 4.754 53.778 0 102.802-16.457 102.802-78.281-0.018-48.658-24.521-81.938-87.077-81.938zM722.651 322.158c-72.046 0-120.722 39.15-120.722 125.842 0 85.961 48.311 125.824 120.722 125.824 72.795 0 120.722-39.515 120.722-125.824-0.018-86.693-48.658-125.842-120.722-125.842z" />
<glyph unicode="&#xe65c;" d="M512 813.714c-274.286 0-511.982-284.453-511.982-365.714 0-81.28 237.714-365.714 512-365.714 274.267 0 511.982 264.119 511.982 365.714 0 101.577-237.714 365.714-512 365.714zM512 192c-141.385 0-256 114.615-256 256 0 141.349 114.615 256 256 256s256-114.651 256-256c0-141.385-114.615-256-256-256zM512 594.286c-2.121 0-4.169-0.238-6.272-0.329 4.005-11.355 6.272-23.534 6.272-36.242 0-60.617-49.134-109.714-109.714-109.714-12.745 0-24.869 2.432-36.242 6.437-0.091-2.158-0.329-4.279-0.329-6.437 0-80.805 65.481-146.286 146.286-146.286s146.286 65.481 146.286 146.286c0 80.786-65.481 146.286-146.286 146.286z" />
<glyph unicode="&#xe65d;" d="M512 576c-97.957 0-182.857-98.981-182.857-128 0-29.038 84.901-128 182.857-128s182.857 98.962 182.857 128c0 29.019-84.901 128-182.857 128zM512 356.571c-50.505 0-91.429 40.923-91.429 91.429 0 50.487 40.923 91.429 91.429 91.429s91.429-40.942 91.429-91.429c0-50.505-40.923-91.429-91.429-91.429zM512 502.857c-1.646 0-3.2-0.347-4.827-0.475 2.981-5.285 4.827-11.301 4.827-17.81 0-20.187-16.384-36.571-36.571-36.571-6.51 0-12.507 1.847-17.81 4.827-0.128-1.627-0.475-3.182-0.475-4.827 0-30.281 24.576-54.857 54.857-54.857s54.857 24.576 54.857 54.857c0 30.299-24.576 54.857-54.857 54.857z" />
<glyph unicode="&#xe65e;" d="M768 374.857c-20.224 0-36.571-16.384-36.571-36.571v-109.714h-438.857v630.857c0 15.122 12.288 27.429 27.429 27.429h228.571c20.169 0 36.571 16.384 36.571 36.571s-16.402 36.571-36.571 36.571h-228.571c-55.461 0-100.571-45.129-100.571-100.571v-749.714c0-55.442 45.111-100.571 100.571-100.571h374.857c60.507 0 109.714 49.207 109.714 109.714v219.429c0 20.187-16.402 36.571-36.571 36.571zM402.286 82.286c-20.224 0-36.571 16.384-36.571 36.571s16.347 36.571 36.571 36.571c20.169 0 36.571-16.384 36.571-36.571s-16.402-36.571-36.571-36.571zM621.714 82.286h-73.143c-20.224 0-36.571 16.384-36.571 36.571s16.347 36.571 36.571 36.571h73.143c20.169 0 36.571-16.384 36.571-36.571s-16.402-36.571-36.571-36.571zM1019.429 521.435l-203.831 410.953h-0.293c-9.454 16.439-26.99 27.611-47.305 27.611s-37.888-11.173-47.36-27.611h-0.256c0 0-203.849-407.717-204.251-408.741l-0.183-0.311c0 0-3.968-9.929-3.968-20.498 0-30.281 24.539-54.857 54.857-54.857h402.286c30.281 0 54.857 24.576 54.857 54.857 0.018 9.161-4.553 18.597-4.553 18.597zM768 521.143c-20.224 0-36.571 16.384-36.571 36.571s16.347 36.571 36.571 36.571c20.169 0 36.571-16.384 36.571-36.571s-16.402-36.571-36.571-36.571zM821.285 782.939l-26.295-129.371h-0.073c-2.194-12.891-13.385-22.711-26.917-22.711s-24.722 9.819-26.971 22.711h-0.073l-26.715 130.725h0.037c-0.75 3.602-1.134 7.314-1.134 11.136 0 30.281 24.539 54.857 54.857 54.857 30.281 0 54.857-24.576 54.857-54.857 0-4.315-0.64-8.466-1.573-12.489z" />
<glyph unicode="&#xe65f;" d="M467.383 529.938c-10.24 0-20.846-0.366-34.011-1.463v-74.258h38.053c24.503 0 46.098 2.56 46.098 38.784-0.037 27.794-14.665 36.937-50.139 36.937zM722.651 530.67c-49.737 0-65.115-29.623-65.115-82.67 0-52.681 15.378-82.688 65.115-82.688 49.755 0 65.134 30.007 65.134 82.688-0.018 52.315-15.397 82.67-65.134 82.67zM859.429 886.857h-694.857c-54.674 0-91.429-36.754-91.429-91.429v-694.857c0-56.393 35.035-91.429 91.429-91.429h694.857c54.674 0 91.429 36.754 91.429 91.429v694.857c0 56.393-35.035 91.429-91.429 91.429zM343.79 525.184h-109.733v-53.76h99.127v-45.001h-99.127v-100.59h-53.394v243.986h163.145v-44.635zM482.743 412.526h-49.39v-86.693h-53.394v242.158c20.846 2.194 55.607 4.754 87.058 4.754 53.778 0 102.802-16.457 102.802-78.281-0.018-48.658-24.521-81.938-87.077-81.938zM722.651 322.158c-72.046 0-120.722 39.15-120.722 125.842 0 85.961 48.311 125.824 120.722 125.824 72.795 0 120.722-39.515 120.722-125.824-0.018-86.693-48.658-125.842-120.722-125.842z" />
<glyph unicode="&#xe660;" d="M467.383 529.938c-10.24 0-20.846-0.366-34.011-1.463v-74.258h38.053c24.503 0 46.098 2.56 46.098 38.784-0.037 27.794-14.665 36.937-50.139 36.937zM722.651 530.67c-49.737 0-65.115-29.623-65.115-82.67 0-52.681 15.378-82.688 65.115-82.688 49.755 0 65.134 30.007 65.134 82.688-0.018 52.315-15.397 82.67-65.134 82.67zM859.429 886.857h-694.857c-54.674 0-91.429-36.754-91.429-91.429v-694.857c0-56.393 35.035-91.429 91.429-91.429h694.857c54.674 0 91.429 36.754 91.429 91.429v694.857c0 56.393-35.035 91.429-91.429 91.429zM343.79 525.184h-109.733v-53.76h99.127v-45.001h-99.127v-100.59h-53.394v243.986h163.145v-44.635zM482.743 412.526h-49.39v-86.693h-53.394v242.158c20.846 2.194 55.607 4.754 87.058 4.754 53.778 0 102.802-16.457 102.802-78.281-0.018-48.658-24.521-81.938-87.077-81.938zM722.651 322.158c-72.046 0-120.722 39.15-120.722 125.842 0 85.961 48.311 125.824 120.722 125.824 72.795 0 120.722-39.515 120.722-125.824-0.018-86.693-48.658-125.842-120.722-125.842z" />
<glyph unicode="&#xe661;" d="M543.323 145.719c16.11-13.147 38.107-11.721 51.84 4.846l329.143 402.286c12.745 15.579 8.265 41.435-5.029 51.346l-420.571 347.429c-6.528 5.413-14.775 8.375-23.278 8.375h-365.714c-20.206 0-36.571-16.384-36.571-36.571v-365.714c0-10.807 4.791-21.047 13.038-27.995l457.143-384zM256 850.286c40.411 0 73.143-32.731 73.143-73.143s-32.731-73.143-73.143-73.143c-40.393 0-73.143 32.731-73.143 73.143s32.75 73.143 73.143 73.143zM937.454 403.163c-15.653 12.782-38.656 10.496-51.474-5.138l-306.030-374.034-465.408 379.227c-15.616 12.709-38.674 10.368-51.456-5.248-12.745-15.671-10.405-38.693 5.248-51.474l493.714-402.286c6.766-5.522 14.958-8.21 23.077-8.21 10.587 0 21.083 4.571 28.325 13.403l329.143 402.286c12.782 15.653 10.478 38.693-5.138 51.474z" />
<glyph unicode="&#xe662;" d="M467.383 529.938c-10.24 0-20.846-0.366-34.011-1.463v-74.258h38.053c24.503 0 46.098 2.56 46.098 38.784-0.037 27.794-14.665 36.937-50.139 36.937zM722.651 530.67c-49.737 0-65.115-29.623-65.115-82.67 0-52.681 15.378-82.688 65.115-82.688 49.755 0 65.134 30.007 65.134 82.688-0.018 52.315-15.397 82.67-65.134 82.67zM859.429 886.857h-694.857c-54.674 0-91.429-36.754-91.429-91.429v-694.857c0-56.393 35.035-91.429 91.429-91.429h694.857c54.674 0 91.429 36.754 91.429 91.429v694.857c0 56.393-35.035 91.429-91.429 91.429zM343.79 525.184h-109.733v-53.76h99.127v-45.001h-99.127v-100.59h-53.394v243.986h163.145v-44.635zM482.743 412.526h-49.39v-86.693h-53.394v242.158c20.846 2.194 55.607 4.754 87.058 4.754 53.778 0 102.802-16.457 102.802-78.281-0.018-48.658-24.521-81.938-87.077-81.938zM722.651 322.158c-72.046 0-120.722 39.15-120.722 125.842 0 85.961 48.311 125.824 120.722 125.824 72.795 0 120.722-39.515 120.722-125.824-0.018-86.693-48.658-125.842-120.722-125.842z" />
<glyph unicode="&#xe663;" d="M467.383 529.938c-10.24 0-20.846-0.366-34.011-1.463v-74.258h38.053c24.503 0 46.098 2.56 46.098 38.784-0.037 27.794-14.665 36.937-50.139 36.937zM722.651 530.67c-49.737 0-65.115-29.623-65.115-82.67 0-52.681 15.378-82.688 65.115-82.688 49.755 0 65.134 30.007 65.134 82.688-0.018 52.315-15.397 82.67-65.134 82.67zM859.429 886.857h-694.857c-54.674 0-91.429-36.754-91.429-91.429v-694.857c0-56.393 35.035-91.429 91.429-91.429h694.857c54.674 0 91.429 36.754 91.429 91.429v694.857c0 56.393-35.035 91.429-91.429 91.429zM343.79 525.184h-109.733v-53.76h99.127v-45.001h-99.127v-100.59h-53.394v243.986h163.145v-44.635zM482.743 412.526h-49.39v-86.693h-53.394v242.158c20.846 2.194 55.607 4.754 87.058 4.754 53.778 0 102.802-16.457 102.802-78.281-0.018-48.658-24.521-81.938-87.077-81.938zM722.651 322.158c-72.046 0-120.722 39.15-120.722 125.842 0 85.961 48.311 125.824 120.722 125.824 72.795 0 120.722-39.515 120.722-125.824-0.018-86.693-48.658-125.842-120.722-125.842z" />
<glyph unicode="&#xe664;" d="M467.383 529.938c-10.24 0-20.846-0.366-34.011-1.463v-74.258h38.053c24.503 0 46.098 2.56 46.098 38.784-0.037 27.794-14.665 36.937-50.139 36.937zM722.651 530.67c-49.737 0-65.115-29.623-65.115-82.67 0-52.681 15.378-82.688 65.115-82.688 49.755 0 65.134 30.007 65.134 82.688-0.018 52.315-15.397 82.67-65.134 82.67zM859.429 886.857h-694.857c-54.674 0-91.429-36.754-91.429-91.429v-694.857c0-56.393 35.035-91.429 91.429-91.429h694.857c54.674 0 91.429 36.754 91.429 91.429v694.857c0 56.393-35.035 91.429-91.429 91.429zM343.79 525.184h-109.733v-53.76h99.127v-45.001h-99.127v-100.59h-53.394v243.986h163.145v-44.635zM482.743 412.526h-49.39v-86.693h-53.394v242.158c20.846 2.194 55.607 4.754 87.058 4.754 53.778 0 102.802-16.457 102.802-78.281-0.018-48.658-24.521-81.938-87.077-81.938zM722.651 322.158c-72.046 0-120.722 39.15-120.722 125.842 0 85.961 48.311 125.824 120.722 125.824 72.795 0 120.722-39.515 120.722-125.824-0.018-86.693-48.658-125.842-120.722-125.842z" />
<glyph unicode="&#xe665;" d="M841.143 667.429h-151.131c32.987 25.070 67.621 55.991 80.549 99.237 10.222 34.103 5.102 67.273-14.318 93.349-23.625 31.744-66.907 47.945-109.275 40.887-69.65-11.593-110.080-61.312-134.967-165.888-24.887 104.594-65.317 154.295-134.967 165.888-42.423 7.058-85.65-9.143-109.275-40.887-19.419-26.094-24.539-59.246-14.318-93.349 12.928-43.227 47.579-74.167 80.549-99.237h-151.131c-60.507 0-109.714-49.207-109.714-109.714v-146.286c0-47.653 30.61-88.21 73.143-103.314v-262.4c0-60.507 49.207-109.714 109.714-109.714h512c56.393 0 109.714 53.321 109.714 109.714v262.4c42.533 15.104 73.143 55.662 73.143 103.314v146.286c0 60.507-49.207 109.714-109.714 109.714zM877.714 557.714v-146.286c0-20.169-16.402-36.571-36.571-36.571h-256v219.429h256c20.169 0 36.571-16.402 36.571-36.571zM582.674 716.215c24.338 103.899 55.607 109.111 76.288 112.549 2.834 0.457 5.669 0.695 8.43 0.695 12.782 0 24.064-4.919 30.171-13.129 5.467-7.314 6.437-16.987 2.926-28.709-8.503-28.416-44.398-54.638-73.234-75.758l-5.376-3.931c-17.499-12.837-34.359-24.43-49.755-34.597 6.053 23.79 10.441 42.386 10.551 42.88zM326.437 816.347c6.107 8.21 17.39 13.129 30.171 13.129 2.761 0 5.595-0.238 8.43-0.695 20.681-3.438 51.95-8.667 76.288-112.549 0.11-0.494 4.498-19.090 10.533-42.862-15.397 10.167-32.256 21.742-49.755 34.597l-5.376 3.931c-28.837 21.102-64.731 47.342-73.234 75.758-3.493 11.703-2.523 21.358 2.944 28.69zM146.286 557.714c0 20.169 16.384 36.571 36.571 36.571h256v-219.429h-256c-20.187 0-36.571 16.402-36.571 36.571v146.286zM219.429 45.714v256h219.429v-292.571h-182.857c-20.187 0-36.571 16.402-36.571 36.571zM768 9.143h-182.857v292.571h219.429v-256c0-16.402-20.169-36.571-36.571-36.571z" />
<glyph unicode="&#xe666;" d="M467.383 529.938c-10.24 0-20.846-0.366-34.011-1.463v-74.258h38.053c24.503 0 46.098 2.56 46.098 38.784-0.037 27.794-14.665 36.937-50.139 36.937zM722.651 530.67c-49.737 0-65.115-29.623-65.115-82.67 0-52.681 15.378-82.688 65.115-82.688 49.755 0 65.134 30.007 65.134 82.688-0.018 52.315-15.397 82.67-65.134 82.67zM859.429 886.857h-694.857c-54.674 0-91.429-36.754-91.429-91.429v-694.857c0-56.393 35.035-91.429 91.429-91.429h694.857c54.674 0 91.429 36.754 91.429 91.429v694.857c0 56.393-35.035 91.429-91.429 91.429zM343.79 525.184h-109.733v-53.76h99.127v-45.001h-99.127v-100.59h-53.394v243.986h163.145v-44.635zM482.743 412.526h-49.39v-86.693h-53.394v242.158c20.846 2.194 55.607 4.754 87.058 4.754 53.778 0 102.802-16.457 102.802-78.281-0.018-48.658-24.521-81.938-87.077-81.938zM722.651 322.158c-72.046 0-120.722 39.15-120.722 125.842 0 85.961 48.311 125.824 120.722 125.824 72.795 0 120.722-39.515 120.722-125.824-0.018-86.693-48.658-125.842-120.722-125.842z" />
<glyph unicode="&#xe667;" d="M146.286 886.857c-40.393 0-73.143-32.75-73.143-73.143v-731.429c0-40.393 32.75-73.143 73.143-73.143s73.143 32.75 73.143 73.143v731.429c0 40.393-32.75 73.143-73.143 73.143zM928.146 356.389l-65.902 164.754 67.712 169.271c4.498 11.264 3.127 24.027-3.675 34.085-6.802 10.057-18.139 16.073-30.281 16.073h-237.714v36.571c0 20.187-16.384 36.571-36.571 36.571h-292.571c-20.206 0-36.571-16.384-36.571-36.571v-365.714c0-20.206 16.366-36.571 36.571-36.571h182.857v-36.571c0-20.187 16.366-36.571 36.571-36.571h347.429c0.146 0 0.256 0 0.347 0 20.224 0 36.571 16.384 36.571 36.571 0 6.583-1.719 12.782-4.773 18.103z" />
</font>
</defs>
</svg>
